Возвращение Куки / Kuky se vraci / Kooky (Ян Сверак / Jan Sverak) [2010, Чехия, детский, семейный, фэнтези, кукольная анимация, BDRip] [1080p] original (cze) + Sub (2 x Rus, Eng)


 

[Цитировать]

Возвращение Куки / Kuky se vracíГод выпуска: 2010
Страна: Чехия
Жанр: мультфильм, фэнтези
Продолжительность: 01:36:50
Перевод: Субтитры
Cубтитры: русские 1 (Orthdx), русские 2 (hrIch)
Режиссер: Ян Сверак / Jan Sverák
Сценарий: Ян Сверак / Jan Sverák
Продюсер: Эрик Абрахам / Eric Abraham, Ян Сверак / Jan Sverák, Джеффри Браун / Jeffrey Brown, Дэвид Ройч / David Rauch, Моника Шплихалова / Monika Šplíchalová
Оператор: Марк Блисс / Mark Bliss, Владимир Смутны / Vladimír Smutný
Композитор: Михал Новински / Michal Novinski
В ролях: Зденек Сверак (Hergot), Ondrej Sverák (Kuky / Ondra), Иржи Махачек (Anuska), Петр Чтвртничек, Иржи Лабус, Ондржей Ветхи (Dubánek), Иржи Шмицер (Plazivec), Вацлав Постранецки (Hospodský), Мирослав Таборски (Vodák), Павел Лишка (Rohánek), Кристина Новакова, Филип Чапка-Мировая премьера: 20 мая 2010-Описание: У мальчика Ондры астма, поэтому мать выкидывает его любимого медведя Куки. Мальчику снится, что медведь собирается вернуться, но попадает в лес, заполненный странными существами. В эру компьютерной анимации мультфильм сделан с помощью примитивной техники и ручных кукол студией Amanita Design(игра Машинариум).

Доп информация:

Страничка фильма на facebook
где можно увидеть такие фотографии








Ян Сверак, один из наиболее успешных чешских кинематографистов.
Лауреат премии Оскар за фильм Коля.
Фильм номинирован на премии "Чешский лев" в категориях:
Лучший фильм года.
Лучшая режиссерская работа
Лучшая .операторская работа
Лучшая музыка
Лучший монтаж
Лучший звук
Рейтинг
kinopoisk.ru: 8.737 (19)
imdb.com: 7.60 (176)-Качество: BDRip
Формат: MKV
Источник: Kooky 2010 1080p BluRay x264-LCHD
Видео: AVC; 1920x816 (2.35:1); 8 182 Kbps; 23,976 fps; 0,213 bpp
Аудио: Czech; DTS; 1509 Kbps; CBR; 6 ch; 16 bit; 48.0 KHz
Субтитры №1: English
Субтитры №2: Russian
Субтитры №3: Russian-

MI

Complete name : D:\Новая папка\Kuky.se.vrací.1080.mkv
Format : Matroska
File size : 6.55 GiB
Duration : 1h 36mn
Overall bit rate : 9 690 Kbps
Encoded date : UTC 2011-02-19 12:04:28
Writing application : mkvmerge v3.4.0 ('Rapunzel') сборка от May 15 2010 09:38:20
Writing library : libebml v0.8.0 + libmatroska v0.9.0
Video
ID : 1
Format : AVC
Format/Info : Advanced Video Codec
Format profile : High@L4.1
Format settings, CABAC : Yes
Format settings, ReFrames : 5 frames
Codec ID : V_MPEG4/ISO/AVC
Duration : 1h 36mn
Bit rate : 8 182 Kbps
Width : 1 920 pixels
Height : 816 pixels
Display aspect ratio : 2.35:1
Frame rate : 23.976 fps
Color space : YUV
Chroma subsampling : 4:2:0
Bit depth : 8 bits
Scan type : Progressive
Bits/(Pixel*Frame) : 0.218
Stream size : 5.40 GiB (82%)
Writing library : x264 core 110 r1803 04b5966
Encoding settings : cabac=1 / ref=5 / deblock=1:-1:-1 / analyse=0x3:0x113 / me=umh / subme=7 / psy=1 / psy_rd=1.00:0.00 / mixed_ref=1 / me_range=16 / chroma_me=1 / trellis=1 / 8x8dct=1 / cqm=0 / deadzone=21,11 / fast_pskip=1 / chroma_qp_offset=-2 / threads=12 / sliced_threads=0 / nr=0 / decimate=1 / interlaced=0 / constrained_intra=0 / bframes=3 / b_pyramid=2 / b_adapt=2 / b_bias=0 / direct=3 / weightb=1 / open_gop=0 / weightp=2 / keyint=250 / keyint_min=23 / scenecut=40 / intra_refresh=0 / rc_lookahead=40 / rc=2pass / mbtree=1 / bitrate=8182 / ratetol=1.0 / qcomp=0.60 / qpmin=0 / qpmax=51 / qpstep=4 / cplxblur=20.0 / qblur=0.5 / vbv_maxrate=50000 / vbv_bufsize=50000 / ip_ratio=1.40 / aq=1:1.00 / nal_hrd=none
Language : Czech
Audio
ID : 2
Format : DTS
Format/Info : Digital Theater Systems
Codec ID : A_DTS
Duration : 1h 36mn
Bit rate mode : Constant
Bit rate : 1 510 Kbps
Channel(s) : 6 channels
Channel positions : Front: L C R, Side: L R, LFE
Sampling rate : 48.0 KHz
Bit depth : 16 bits
Compression mode : Lossy
Stream size : 1.02 GiB (16%)
Language : Czech
Text #1
ID : 3
Format : UTF-8
Codec ID : S_TEXT/UTF8
Codec ID/Info : UTF-8 Plain Text
Language : English
Text #2
ID : 4
Format : UTF-8
Codec ID : S_TEXT/UTF8
Codec ID/Info : UTF-8 Plain Text
Title : hrIch
Language : Russian
Text #3
ID : 5
Format : UTF-8
Codec ID : S_TEXT/UTF8
Codec ID/Info : UTF-8 Plain Text
Title : Orthdx
Language : Russian
-BDRip [1080p]: original (cze) + Sub (2 x Rus, Eng) - 6.55 GB
BDRip [720p]: original (cze) + Sub (2 x Rus, Eng) - 4.37 GB
DVD9: VO + original + sub (cz, en, rus) - 6.58 GB
DVDRip: VO + original (cze) + Sub (rus) - 1.45 GB
-

Скриншоты











Показать сообщения:    

Текущее время: 03-Дек 12:36

Часовой пояс: UTC + 3


Вы не можете начинать темы
Вы не можете отвечать на сообщения
Вы не можете редактировать свои сообщения
Вы не можете удалять свои сообщения
Вы не можете голосовать в опросах
Вы не можете прикреплять файлы к сообщениям
Вы не можете скачивать файлы