Игра в бисер / The Bead Game / Histoire De Perles (Иша Патель / Ishu Patel) [1977, анимация, DVDRip]


 

[Цитировать]

Игра в бисер / The Bead Game / Histoire De Perles
Страна: Канада
Жанр: анимация
Продолжительность: 00:05:28
Год выпуска: 1977
Перевод: Не требуется
Русские субтитры: нет
Режиссёр: Иша Патель / Ishu Patel
Описание: Необычный, концептуальный короткометражный анимационный фильм индийского режиссера Isha Patel.
Качество: DVDRip
Формат: AVI
Видео: 624x464(1.34:1), 29.970 fps, XviD build 12 ~1 499 Kbps, 0.17 bit/pixel
Аудио: mp3, 48.0 KHz, 2ch, 112kbps
Субтитры: отсутствуют

Подробные технические данные

GeneralComplete name : X:\Users\туни\Desktop\Раздачи\Ishu Patel - The Bead Game - (1977)\Ishu Patel - The Bead Game - (1977).aviFormat : AVIFormat/Info : Audio Video InterleaveFile size : 63.9 MiBDuration : 5mn 28sOverall bit rate : 1 629 KbpsWriting library : VirtualDub build 0/release
VideoID : 0Format : MPEG-4 VisualFormat profile : Simple@L3Format settings, BVOP : NoFormat settings, QPel : NoFormat settings, GMC : No warppointsFormat settings, Matrix : Default (H.263)Codec ID : XVIDCodec ID/Hint : XviDDuration : 5mn 28sBit rate : 1 499 KbpsWidth : 624 pixelsHeight : 464 pixelsDisplay aspect ratio : 4:3Frame rate : 29.970 fpsResolution : 8 bitsColorimetry : 4:2:0Scan type : ProgressiveBits/(Pixel*Frame) : 0.173Stream size : 58.8 MiB (92%)Writing library : XviD 0.0.12 (UTC 2003-06-11)
AudioID : 1Format : MPEG AudioFormat version : Version 1Format profile : Layer 3Format_Settings_Mode : Joint stereoFormat_Settings_ModeExtension : MS StereoCodec ID : 55Codec ID/Hint : MP3Duration : 5mn 28sBit rate mode : VariableBit rate : 112 KbpsChannel(s) : 2 channelsSampling rate : 48.0 KHzStream size : 4.54 MiB (7%)Alignment : Aligned on interleavesInterleave, duration : 24 ms (0.72 video frame)Interleave, preload duration : 379 ms

Скриншоты




Показать сообщения:    

Текущее время: 02-Дек 21:06

Часовой пояс: UTC + 3


Вы не можете начинать темы
Вы не можете отвечать на сообщения
Вы не можете редактировать свои сообщения
Вы не можете удалять свои сообщения
Вы не можете голосовать в опросах
Вы не можете прикреплять файлы к сообщениям
Вы не можете скачивать файлы