Я люблю тебя / I love you (Ринат Тимеркаев) [2010, Россия, Мелодрама, HDRip] [1080]


 

[Цитировать]

Я люблю тебя / I love you- Страна: Россия
Жанр: Мелодрама
Год выпуска: 2010
Продолжительность: 00:05:05
Перевод: Не требуется
Cубтитры: нет
Режиссер: Ринат Тимеркаев/Rinat Timerkaev
В ролях: Светлана Самойлова, Александр Гаврилин
Описание: Трогательная история о, казалось бы, совсем незаметном в суетной повседневности объекте нашей жизни...любимом городе.
Качество видео: HDRip
Формат видео: MP4
Видео: H264 1920x1080 24.00fps 19.9 Mbps
Аудио: AAC 256 Kbps 48000Hz stereo 1536kbps

MediaInfo

General
Complete name : J:\I_love_you\I_love_you_final\ver3\I_love_you_FullHD_2.mp4
Format : MPEG-4
Format profile : Base Media / Version 2
Codec ID : mp42
File size : 733 MiB
Duration : 5mn 5s
Overall bit rate : 20.1 Mbps
©TIM : 00:00:01:11
©TSC : 24
©TSZ : 1
Video
ID : 1
Format : AVC
Format/Info : Advanced Video Codec
Format profile : Main@L4.2
Format settings, CABAC : Yes
Format settings, ReFrames : 3 frames
Codec ID : avc1
Codec ID/Info : Advanced Video Coding
Duration : 5mn 5s
Bit rate mode : Variable
Bit rate : 19.9 Mbps
Width : 1 920 pixels
Height : 1 080 pixels
Display aspect ratio : 16:9
Frame rate mode : Constant
Frame rate : 24.000 fps
Standard : NTSC
Color space : YUV
Chroma subsampling : 4:2:0
Bit depth : 8 bits
Scan type : Progressive
Bits/(Pixel*Frame) : 0.400
Stream size : 724 MiB (99%)
Language : English
Audio
ID : 2
Format : AAC
Format/Info : Advanced Audio Codec
Format version : Version 4
Format profile : LC
Format settings, SBR : No
Codec ID : 40
Duration : 5mn 5s
Bit rate mode : Variable
Bit rate : 253 Kbps
Maximum bit rate : 368 Kbps
Channel(s) : 2 channels
Channel positions : Front: L R
Sampling rate : 48.0 KHz
Stream size : 9.23 MiB (1%)

Скриншот c названием фильма

Скриншоты




Показать сообщения:    

Текущее время: 08-Дек 03:12

Часовой пояс: UTC + 3


Вы не можете начинать темы
Вы не можете отвечать на сообщения
Вы не можете редактировать свои сообщения
Вы не можете удалять свои сообщения
Вы не можете голосовать в опросах
Вы не можете прикреплять файлы к сообщениям
Вы не можете скачивать файлы