Пожалуйста, скажи что-нибудь / Please say something (Девид О\'Райли / David O\'Reilly) [2010, Ирландия, анимация, короткометражка, HDRip] original + sub (rus soft, eng hard)


 

[Цитировать]

Пожалуйста, скажи что-нибудь / Please say something- Страна: Ирландия
Жанр: анимация, короткометражка
Год выпуска: 2010
Продолжительность: 00:10:11
Перевод: субтитры
Cубтитры: русские, английские
Режиссер: Девид О'Райли / David O'Reilly
В ролях: Кот, мышь
Описание: Насколько сложны могут быть романтические отношения между двумя живими существами, если он — мышонок, а она — кошка? Слава богу — нет языкового барьера, и Он и Она говорят на миксе электронных звуков в стиле glitch.
Электронный мир, настоящие чувства. Любовь, боль, радость, грусть, разочарование, сострадание, шок, безвыходность, паника... История, которая заставит вас чувствовать. Эмпатия.
10 минут, за которые можно прожить всю жизнь.
  • «Хрустальный медведь» за лучший короткометражный фильм на Кинофестивале в Берлине.
  • Участник Международного анимационного кинофестиваля в Аннеси, 2009 г.
  • Участник фестиваля «Пиктоплазма», 2009 г.
    Качество видео: HDRip
    Формат видео: MP4
    Видео: AVC, 1280x720, 16:9, 25.000 fps, VBR (2057-9864 Kbps)
    Аудио: AAC, 44.1 KHz, VBR (124-254 Kbps), 2 канала (Front: L R)

MediaInfo

General
Format : MPEG-4
Format profile : Base Media / Version 2
Codec ID : mp42
File size : 159 MiB
Duration : 10mn 11s
Overall bit rate : 2 184 Kbps
Encoded date : UTC 2010-01-07 05:51:03
Tagged date : UTC 2010-01-07 05:51:03
gsst : 0
gstd : 611590
gssd : B4A7DA808MH1285735346399891
gshh : v24.lscache8.c.youtube.com
Video
ID : 2
Format : AVC
Format/Info : Advanced Video Codec
Format profile : High@L3.1
Format settings, CABAC : Yes
Format settings, ReFrames : 3 frames
Codec ID : avc1
Codec ID/Info : Advanced Video Coding
Duration : 10mn 11s
Bit rate mode : Variable
Bit rate : 2 057 Kbps
Maximum bit rate : 9 864 Kbps
Width : 1 280 pixels
Height : 720 pixels
Display aspect ratio : 16:9
Frame rate mode : Constant
Frame rate : 25.000 fps
Resolution : 8 bits
Colorimetry : 4:2:0
Scan type : Progressive
Bits/(Pixel*Frame) : 0.089
Stream size : 150 MiB (94%)
Title : (C) 2007 Google Inc. v08.13.2007.
Encoded date : UTC 2010-01-07 05:51:04
Tagged date : UTC 2010-01-07 05:51:22
Audio
ID : 1
Format : AAC
Format/Info : Advanced Audio Codec
Format version : Version 4
Format profile : LC
Format settings, SBR : No
Codec ID : 40
Duration : 10mn 11s
Bit rate mode : Variable
Bit rate : 124 Kbps
Maximum bit rate : 254 Kbps
Channel(s) : 2 channels
Channel positions : Front: L R
Sampling rate : 44.1 KHz
Stream size : 9.07 MiB (6%)
Title : (C) 2007 Google Inc. v08.13.2007.
Encoded date : UTC 2010-01-07 05:51:03
Tagged date : UTC 2010-01-07 05:51:22

Скриншоты

-Субтитры:
srt

ass



Показать сообщения:    

Текущее время: 05-Дек 21:37

Часовой пояс: UTC + 3


Вы не можете начинать темы
Вы не можете отвечать на сообщения
Вы не можете редактировать свои сообщения
Вы не можете удалять свои сообщения
Вы не можете голосовать в опросах
Вы не можете прикреплять файлы к сообщениям
Вы не можете скачивать файлы