9,99 долларов / $9.99 (Татья Розенталь / Tatia Rosenthal) [2008, Австралия, Израиль, анимация, драма, HDRip] MVO


 

[Цитировать]

9,99 долларов / $9.99 - все фильмы- Год выпуска: 2008
Страна: Австралия, Израиль
Жанр: Мультфильм, драма
Продолжительность: 01:45:33
Перевод: Профессиональный (многоголосый закадровый)-Режиссер: Татья Розенталь / Tatia Rosenthal
Продюссер: Михель Аксфорд, Ричард Клендиннен, Амир Хэрел
и другие
В ролях: Джеффри Раш, Энтони ЛаПалья, Сэмюэль Джонсон, Бэрри Отто, Джоэль Эдгертон, Клаудия Карвэн, Бен Мендельсон, Лианна Вольсман, Джейми Катсаматсас, Брайан Миган, Рой Биллинг, Дэвид Филд, Леон Форд, Том Бадж, Генри Никсон и другие-Описание
«Вы когда-нибудь задавались вопросом, в чем смысл жизни? Теперь вы можете получить ответы на все волнующие вас вопросы, заказав красочный буклет всего лишь за $9,99». Это объявление меняет жизнь безработного Дэйва Пека, проживающего с отцом и братом в многоквартирном доме. Стремясь поделиться своим открытием с миром, Дэйв знакомится с другими обитателями дома, людьми разными и интересными: со стариком, приютившим ангела-мизантропа, красавицей-моделью с неординарными сексуальными предпочтениями, крепко пьющим парнем, живущим с тремя отвязными пятисантиметровыми подростками, и маленьким мальчиком, подружившимся со свиньей-копилкой. У них нет буклетов, но у каждого есть свой ответ на самый главный вопрос.-Знаете ли вы, что...
• Картина была полностью снята в Новом Южном Уэльсе, Австралия.- | | -Качество: HDRip
Формат: AVI
Видео кодек: XviD
Аудио кодек: AC3
Видео: XviD, 720x408, 24.00fps, 1046kbit/s
Аудио: AC3 2.0, 48000Hz, 192kbps |Многоголосый закадровый, Лицензия|-

MediaInfo

General
      Format : AVI
      Format/Info : Audio Video Interleave
      File size : 696 MiB
      Duration : 1h 17mn
      Overall bit rate : 1 247 Kbps
      Writing application : VirtualDubMod 1.5.10.2 (build 2540/release)
      Writing library : VirtualDubMod build 2540/release
   Video #0
      ID : 0
      Format : MPEG-4 Visual
      Format profile : Advanced Simple@L5
      Format settings, BVOP : Yes
      Format settings, QPel : No
      Format settings, GMC : No warppoints
      Format settings, Matrix : Default (H.263)
      Codec ID : XVID
      Codec ID/Hint : XviD
      Duration : 1h 17mn
      Bit rate : 1 046 Kbps
      Width : 720 pixels
      Height : 408 pixels
      Display aspect ratio : 16:9
      Frame rate : 24.000 fps
      Resolution : 8 bits
      Colorimetry : 4:2:0
      Scan type : Progressive
      Bits/(Pixel*Frame) : 0.148
      Stream size : 584 MiB (84%)
      Writing library : XviD 1.2.1 (UTC 2008-12-04)
   Audio #1
      ID : 1
      Format : AC-3
      Format/Info : Audio Coding 3
      Format profile : Dolby Digital
      Codec ID : 2000
      Duration : 1h 17mn
      Bit rate mode : Constant
      Bit rate : 192 Kbps
      Channel(s) : 2 channels
      Channel positions : L R
      Sampling rate : 48.0 KHz
      Stream size : 107 MiB (15%)
      Alignment : Split accross interleaves
      Interleave, duration : 42 ms (1.00 video frame)
      Interleave, preload duration : 500 ms

-

Скриншот c названием фильма

Увеличение по клику

-

Скриншоты

Увеличение по клику

-



Показать сообщения:    

Текущее время: 10-Дек 07:59

Часовой пояс: UTC + 3


Вы не можете начинать темы
Вы не можете отвечать на сообщения
Вы не можете редактировать свои сообщения
Вы не можете удалять свои сообщения
Вы не можете голосовать в опросах
Вы не можете прикреплять файлы к сообщениям
Вы не можете скачивать файлы