Дополнительное время / Jatkoaika (Тату Похъявирта, Марк Стахле / Tatu Pohjavirta, Mark Ståhle) [2007, Финляндия, авторская анимация, чёрный юмор, WEBRip]


 

[Цитировать]

Дополнительное время / Jatkoaika
Страна: Финляндия
Жанр: авторская анимация, чёрный юмор
Год выпуска: 2007
Продолжительность: 00:09:45
Перевод: не требуется
Cубтитры: нет
Режиссёры: Тату Похъявирта, Марк Стахле / Tatu Pohjavirta, Mark Ståhle
Описание: Дочь родителей-инвалидов погибает во время занятия по фигурному катанию. Безутешный отец обращается к богу с просьбой о её воскрешении, но дочка уже прижилась на том свете, и этому совсем не рада...
Качество видео: WEB-DLRip
Формат видео: AVI
Видео: 939 kbps, 720х400 (16:9), 25.000 fps, MPEG-4 Visual (XviD)
Аудио: 128 kbps, 44.1 kHz, 2 channels, MPEG Audio (MP3)

MediaInfo

General
Complete name : Jatkoaika (2007).avi
Format : AVI
Format/Info : Audio Video Interleave
File size : 75.3 MiB
Duration : 9mn 45s
Overall bit rate : 1 079 Kbps
Writing application : Lavf55.33.100
Video
ID : 0
Format : MPEG-4 Visual
Format profile : Simple@L3
Format settings, BVOP : No
Format settings, QPel : No
Format settings, GMC : No warppoints
Format settings, Matrix : Default (H.263)
Codec ID : XVID
Codec ID/Hint : XviD
Duration : 9mn 45s
Bit rate : 939 Kbps
Width : 720 pixels
Height : 400 pixels
Display aspect ratio : 16:9
Frame rate : 25.000 fps
Color space : YUV
Chroma subsampling : 4:2:0
Bit depth : 8 bits
Scan type : Progressive
Compression mode : Lossy
Bits/(Pixel*Frame) : 0.130
Stream size : 65.5 MiB (87%)
Writing library : XviD 64
Audio
ID : 1
Format : MPEG Audio
Format version : Version 1
Format profile : Layer 3
Mode : Joint stereo
Mode extension : MS Stereo
Codec ID : 55
Codec ID/Hint : MP3
Duration : 9mn 45s
Bit rate mode : Constant
Bit rate : 128 Kbps
Channel(s) : 2 channels
Sampling rate : 44.1 KHz
Compression mode : Lossy
Stream size : 8.93 MiB (12%)
Alignment : Aligned on interleaves
Interleave, duration : 26 ms (0.65 video frame)
Interleave, preload duration : 26 ms

Скриншоты c названием фильма

Скриншоты




Показать сообщения:    

Текущее время: 09-Дек 10:45

Часовой пояс: UTC + 3


Вы не можете начинать темы
Вы не можете отвечать на сообщения
Вы не можете редактировать свои сообщения
Вы не можете удалять свои сообщения
Вы не можете голосовать в опросах
Вы не можете прикреплять файлы к сообщениям
Вы не можете скачивать файлы