Лапчатоногиум / Palmipedarium (Джереми Клапин / Jérémy Clapin) [2012, Франция, авторская анимация, WEBRip]


 

[Цитировать]

Лапчатоногиум / Palmipedarium
Страна: Франция
Жанр: авторская анимация
Год выпуска: 2012
Продолжительность: 00:10:15
Перевод: не требуется
Cубтитры: нет
Режиссёр: Джереми Клапин / Jérémy Clapin
Описание: Однажды, гуляя возле озера, сын охотника встречает непонятное существо. Нескладный, кривоклювый, не умеющий летать уродец доверчиво набивается ему в друзья. Мальчик понимает, что этот "друг" может стать лёгкой добычей для людей, но не знает как его спасти...
Качество видео: WEBRip
Формат видео: AVI
Видео: 840 kbps, 720х400 (16:9), 24.000 fps, MPEG-4 Visual (XviD)
Аудио: 160 kbps, 48.0 kHz, 2 channels, MPEG Audio (MP3)

MediaInfo

General
Complete name : Palmipedarium (2012).avi
Format : AVI
Format/Info : Audio Video Interleave
File size : 74.4 MiB
Duration : 10mn 16s
Overall bit rate : 1 012 Kbps
Writing application : Lavf55.33.100
Video
ID : 0
Format : MPEG-4 Visual
Format profile : Advanced Simple@L5
Format settings, BVOP : No
Format settings, QPel : No
Format settings, GMC : No warppoints
Format settings, Matrix : Default (H.263)
Codec ID : XVID
Codec ID/Hint : XviD
Duration : 10mn 15s
Bit rate : 840 Kbps
Width : 720 pixels
Height : 400 pixels
Display aspect ratio : 16:9
Frame rate : 24.000 fps
Color space : YUV
Chroma subsampling : 4:2:0
Bit depth : 8 bits
Scan type : Progressive
Compression mode : Lossy
Bits/(Pixel*Frame) : 0.122
Stream size : 61.7 MiB (83%)
Writing library : XviD 64
Audio
ID : 1
Format : MPEG Audio
Format version : Version 1
Format profile : Layer 3
Mode : Joint stereo
Mode extension : MS Stereo
Codec ID : 55
Codec ID/Hint : MP3
Duration : 10mn 16s
Bit rate mode : Constant
Bit rate : 160 Kbps
Channel(s) : 2 channels
Sampling rate : 48.0 KHz
Compression mode : Lossy
Stream size : 11.8 MiB (16%)
Alignment : Aligned on interleaves
Interleave, duration : 24 ms (0.58 video frame)
Interleave, preload duration : 24 ms

Скриншот c названием фильма

Скриншоты




Показать сообщения:    

Текущее время: 04-Дек 00:48

Часовой пояс: UTC + 3


Вы не можете начинать темы
Вы не можете отвечать на сообщения
Вы не можете редактировать свои сообщения
Вы не можете удалять свои сообщения
Вы не можете голосовать в опросах
Вы не можете прикреплять файлы к сообщениям
Вы не можете скачивать файлы