Страх и ненависть в стиле гонзо журналистики / Fear and Loathing in Gonzovision [1978, документальный, биография, DVDRip] VO (Jimmy J.) + Original Eng


Статистика раздачи [Обновить пиров]
Размер:  552 MB   |    Зарегистрирован:  1 год 1 месяц   |    Скачан:  0 раз

Полного источника не было: Никогда

 
   
 
 
 

[Цитировать]

Страх и ненависть в стиле гонзо журналистикиFear and Loathing in Gonzovision Страна: Великобритания
Жанр: документальный, биография
Год выпуска: 1978
Продолжительность: 50:17
Перевод: Одноголосый закадровый [Jimmy J.]
Cубтитры: нет
Оригинальная аудиодорожка: английский-Режиссер: Найджел Финч
В ролях: Хантер С. Томпсон, Дэвид Коллингс, Джон Гилгуд и другие.
Описание: Разноплановое телевизионное шоу, темой очередного выпуска которого могло стать все что угодно, от бесед на тему науки и искусства и интервью со знаменитостями, до демонстрации телепьес, создававшихся специально для данного шоу. Данный выпуск посвящен скандально известному писателю, журналисту, основателю стиля журналистики "гонзо" - Хантеру С. Томпсону.- -Релиз: : Zenk-Качество видео: DVDRip [Сэмпл]
Формат видео: AVI
Видео: 720x480 (1.50:1), 23.976 fps, DivX Codec 4.x ~1199 kbps avg, 0.14 bit/pixel
Аудио 1: 44.100 kHz, MPEG Layer 3, 2 ch, 192.00 kbps avg [Jimmy J.]
Аудио 2: 48 kHz, MPEG Layer 3, 2 ch, 128.00 kbps avg [Английский]-

MediaInfo

General
Complete name : D:\Видео\Фильмы\Хантер Томпсон\Страх и ненависть в стиле гонзо журналистики (1978) DVDRip.avi
Format : AVI
Format/Info : Audio Video Interleave
File size : 552 MiB
Duration : 50mn 17s
Overall bit rate : 1 534 Kbps
Movie name : Страх и ненависть в стиле гонзо журналистики (1978) DVDRip
Genre : Documentary
Writing application : VirtualDubMod 1.5.10.2 (build 2540/release)
Original source form/Name : Documentary
Comment : Релиз: Zenk | Русская озвучка: Jimmy J.
Video
ID : 0
Format : MPEG-4 Visual
Format profile : Simple@L1
Format settings, BVOP : No
Format settings, QPel : No
Format settings, GMC : No warppoints
Format settings, Matrix : Default (H.263)
Codec ID : DIVX
Codec ID/Info : Project Mayo
Codec ID/Hint : DivX 4
Duration : 50mn 17s
Bit rate : 1 200 Kbps
Width : 720 pixels
Height : 480 pixels
Display aspect ratio : 3:2
Frame rate : 23.976 fps
Standard : NTSC
Color space : YUV
Chroma subsampling : 4:2:0
Bit depth : 8 bits
Scan type : Progressive
Compression mode : Lossy
Bits/(Pixel*Frame) : 0.145
Stream size : 432 MiB (78%)
Writing library : avc2.0.11.1110
Audio #1
ID : 1
Format : MPEG Audio
Format version : Version 1
Format profile : Layer 3
Mode : Joint stereo
Mode extension : MS Stereo
Codec ID : 55
Codec ID/Hint : MP3
Duration : 50mn 17s
Bit rate mode : Constant
Bit rate : 192 Kbps
Channel(s) : 2 channels
Sampling rate : 44.1 KHz
Compression mode : Lossy
Stream size : 69.0 MiB (13%)
Alignment : Aligned on interleaves
Interleave, duration : 42 ms (1.00 video frame)
Interleave, preload duration : 522 ms
Audio #2
ID : 2
Format : MPEG Audio
Format version : Version 1
Format profile : Layer 3
Mode : Joint stereo
Mode extension : MS Stereo
Codec ID : 55
Codec ID/Hint : MP3
Duration : 50mn 17s
Bit rate mode : Constant
Bit rate : 128 Kbps
Channel(s) : 2 channels
Sampling rate : 48.0 KHz
Compression mode : Lossy
Stream size : 46.0 MiB (8%)
Alignment : Split accross interleaves
Interleave, duration : 42 ms (1.00 video frame)
Interleave, preload duration : 500 ms

Скриншот c названием фильма

Скриншоты

[teatrix.ru].t5254.torrent 
Торрент: Зарегистрирован [ 2015-10-09 00:09 ] · F8C1670A96255C9E348901360592A978B38DA766

Скачать .torrent

Скачать

11 KB

Статус: проверено
Скачан: 0 раз
Размер: 552 MB
terms.php



Быстрый ответ

Имя:

      
Для отправки сообщений необходимо включить JavaScript
Показать сообщения:    

Текущее время: 04-Дек 04:59

Часовой пояс: UTC + 3


Вы можете начинать темы
Вы можете отвечать на сообщения
Вы не можете редактировать свои сообщения
Вы не можете удалять свои сообщения
Вы не можете голосовать в опросах
Вы не можете прикреплять файлы к сообщениям
Вы можете скачивать файлы