Туристическое бюро / Office du tourisme (Бенжамен Биоле / Benjamin Biolay) [2014, Франция, сатира, мюзикл, ЛГБТ-тема, короткий метр, DVB] Original (Fre) + Sub (Rus)


Статистика раздачи [Обновить пиров]
Размер:  339 MB   |    Зарегистрирован:  1 год 1 месяц   |    Скачан:  0 раз

Полного источника не было: Никогда

 
   
 
 
 

[Цитировать]

Туристическое бюро
Office du tourisme- Страна: Франция
Жанр: сатира, мюзикл, ЛГБТ-тема, короткий метр
Год выпуска: 2014
Продолжительность: 00:15:14Перевод: Субтитры (перевод Алексей Королев, корректура ralf124c41+)
Cубтитры: русские
Оригинальная аудиодорожка: французский
Режиссер: Бенжамен Биоле / Benjamin Biolay
В ролях: Барбара Пробст / Barbara Probst (Agathe), Бенуа Амон / Benoît Hamon (Le voisin), Кьяра Мастроянни / Chiara Mastroianni (La maman de Paola, voice), Лео Рейно / Léo Reynaud (Le garçon de café), Эльза Канова / Elsa Canovas (Sol), Бенжамен Биоле (Le chauffeur de taxi), Анна Биоле / Anna Biolay (Paola)
Описание: Агат, девушка из провинции, недавно перебралась в Париж и открывает для себя "самый красивый город в мире", свободу и любовь. В этом городе, полном противоречий, виды с туристических открыток и лёгкие мелодии контрастируют с жестокостью его жителей и горечью диалогов…
Доп. информация: Hot Bird (13.0°E) TV5MONDE Europe DVB-S. На территории РФ возрастное ограничение 18+.
Награда: лауреат 21ème Films Talents Cannes Adami 2014 в категории "Музыкальный фильм".

Качество видео: DVB
Формат видео: MKV
Видео: MPEG Video 2, 720x576@1024x576 (16:9), 25 fps, ~2856 kbps avg, 0.275 bit/pixel
Аудио: MPEG Audio 2, 2 ch, 48 kHz, 192.00 kbps - французский
Формат субтитров: softsub (SRT)

Пример субтитров

100:00:09,380 --> 00:00:12,100Здесь есть башня,словно указательный палец,
200:00:12,220 --> 00:00:15,580пригородные ласточки,площадь оперы,
300:00:15,940 --> 00:00:19,020к радости тех,кто захочет это увидеть.
400:00:19,180 --> 00:00:22,860На солнышке отдыхаетпара запоздалых любовников.
500:00:23,100 --> 00:00:26,580И есть слова, которые мыосмелимся наконец сказать,
600:00:26,700 --> 00:00:30,140и маленькие недостатки,которыми мы начинаем дорожить.
700:00:30,300 --> 00:00:33,620И такой простор, чтовсё кажется невесомым.
800:00:33,860 --> 00:00:37,580Каждую зиму на площади,каждое лето - на пляже.
900:00:37,980 --> 00:00:43,253Я впитываю и обожаюкаждую секунду
1000:00:45,540 --> 00:00:49,700в самом красивом городе мира.
1100:00:52,380 --> 00:00:58,340Будет ещё столько любви...
1200:00:59,660 --> 00:01:04,540Встреч с потрясающими людьми...
1300:01:06,860 --> 00:01:13,220В нём мы видим чарующий свет,
1400:01:14,380 --> 00:01:18,580в самом красивом городе мира.
1500:01:19,020 --> 00:01:20,740Всего мира?
1600:01:21,100 --> 00:01:24,260Да, в самом красивом городе мира.
1700:01:31,220 --> 00:01:33,180- Что вы тут делаете?
1800:01:33,620 --> 00:01:35,820- Здравствуйте!Было открыто, я вошёл.
1900:01:36,420 --> 00:01:39,180- Так вот кто сюда въехал?!- Да, я здесь живу.
2000:01:39,780 --> 00:01:41,380Я родственница Лопеза.

MediaInfo

ОбщееУникальный идентификатор : 241371588707299143844964482994884868244 (0xB5967A1F657929C4903A97587A147894)Полное имя : F:\My Torrents 3\[apreder]MINI_MOVIES_10\[apreder]MM_Office_du_tourisme(2014)DVB.mkvФормат : MatroskaВерсия формата : Version 2Размер файла : 339 МбайтПродолжительность : 15 м.Режим общего битрейта : ПеременныйОбщий поток : 3110 Кбит/секДата кодирования : UTC 2015-09-27 09:42:40Программа кодирования : mkvmerge v8.4.0 ('A better way to fly') 64bitБиблиотека кодирования : libebml v1.3.1 + libmatroska v1.4.2Attachements : cover.jpg / cover_small.jpgTITLE : Office du tourismeIMDB : tt3974642DATE_RELEASED : 2014-05-00LAW_RATING : 18+GENRE : Short, RomanceACTOR : Barbara Probst, Benoît Hamon, Chiara MastroianniDIRECTOR : Benjamin BiolayKEYWORDS : rutracker.org
ВидеоИдентификатор : 1Формат : MPEG VideoВерсия формата : Version 2Профиль формата : Main@MainПараметр BVOP формата : ДаПараметр матрицы формата : ВыборочнаяПараметр GOP формата : M=4, N=12Format_Settings_PictureStructure : FrameИдентификатор кодека : V_MPEG2Идентификатор кодека/Информация : MPEG 1 or 2 VideoПродолжительность : 15 м.Вид битрейта : ПеременныйБитрейт : 2856 Кбит/секШирина : 720 пикселейВысота : 576 пикселейСоотношение сторон : 16:9Режим частоты кадров : ПостоянныйЧастота кадров : 25,000 кадров/секСтандарт вещания : PALЦветовое пространство : YUVСубдискретизация насыщенности : 4:2:0Битовая глубина : 8 битТип развёртки : ЧересстрочнаяПорядок развёртки : Верхнее поле первоеМетод сжатия : С потерямиБит/(Пиксели*Кадры) : 0.275Временной код первого кадра : 00:00:00:00Оригинал временного кода : Group of pictures headerРазмер потока : 311 Мбайт (92%)Default : ДаForced : Нет
АудиоИдентификатор : 2Формат : MPEG AudioВерсия формата : Version 1Профиль формата : Layer 2Режим : Joint stereoРасширение режима : Intensity Stereo + MS StereoИдентификатор кодека : A_MPEG/L2Идентификатор кодека/Подсказка : MP2Продолжительность : 15 м.Вид битрейта : ПостоянныйБитрейт : 192 Кбит/секКаналы : 2 каналаЧастота : 48,0 КГцМетод сжатия : С потерямиРазмер потока : 20,9 Мбайт (6%)Язык : FrenchDefault : ДаForced : Нет
ТекстИдентификатор : 3Формат : UTF-8Идентификатор кодека : S_TEXT/UTF8Идентификатор кодека/Информация : UTF-8 Plain TextЯзык : RussianDefault : ДаForced : Нет

Скриншот c названием фильма

Скриншоты

Резервные скриншоты

[teatrix.ru].t5257.torrent 
Торрент: Зарегистрирован [ 2015-10-09 00:45 ] · 01C6A91891C6DA131B97A7CB217FB171C30BA13E

Скачать .torrent

Скачать

14 KB

Статус: проверено
Скачан: 0 раз
Размер: 339 MB
terms.php



Быстрый ответ

Имя:

      
Для отправки сообщений необходимо включить JavaScript
Показать сообщения:    

Текущее время: 03-Дек 05:27

Часовой пояс: UTC + 3


Вы можете начинать темы
Вы можете отвечать на сообщения
Вы не можете редактировать свои сообщения
Вы не можете удалять свои сообщения
Вы не можете голосовать в опросах
Вы не можете прикреплять файлы к сообщениям
Вы можете скачивать файлы