Жютра / Jutra (Мари-Жозе Сен-Пьер / Marie-Josee Saint-Pierre) [2014, Канада, биографический, документальная драма, анимация, короткий метр, DVB -> DVD] Original (Fre) + Sub (Rus, Fre, Deu)


Статистика раздачи [Обновить пиров]
Размер:  332 MB   |    Зарегистрирован:  1 год 2 месяца   |    Скачан:  0 раз

Полного источника не было: Никогда

 
   
 
 
 

[Цитировать]

Жютра
Jutra- Страна: Канада
Жанр: биографический, документальная драма, анимация, короткий метр
Год выпуска: 2014
Продолжительность: 00:13:23
Перевод: Субтитры (русский перевод И.Рыбкиной, Éclair Media)
Cубтитры: русские, французские, немецкие, нидерландские, румынские
Оригинальная аудиодорожка: французский
Режиссер: Мари-Жозе Сен-Пьер / Marie-Josee Saint-Pierre
В ролях: Клод Жютра / Claude Jutra (Himself, archive footage)
Описание: Творчество этого выдающегося режиссера сыграло важную роль в развитии киноискусства Канады. Об этом свидетельствует тот факт, что в 1993 году Канадская Академия кино и телевидения учредила ежегодную премию имени Клода Жютра за достижения в области режиссуры. Его судьба сложилась достаточно трагично. Будучи уже признанным мастером, он узнал о начинающейся у него болезни Альцгеймера и в возрасте 56 лет покончил жизнь самоубийством. В этом необычном документальном фильме, состоящем из архивных документальных кадров, соединенных экспериментальной анимацией, Клод Жютра ведет диалоги с самим собой, рассказывая об основных этапах своей жизни и творчества.
Доп. информация: Hot Bird (13.0°E) TV5MONDE Europe DVB-S
Награды: премия "Жютра" (Канада) 2015 за лучший короткометражный анимационный фильм; приз за лучшую документальную короткометражку Canadian Screen Awards 2015; др. награды. Участник Cannes Film Festival 2014.

Качество видео: DVB
Формат видео: DVD Video
Видео: MPEG Video 2, 720x576@1024x576 (16:9), 25 fps, ~3208 kbps avg, 0.309 bit/pixel
Аудио: MPEG Audio 2, 2 ch, 48 kHz, 192.00 kbps - французский
Формат субтитров: prerendered (IDX+SUB)

MediaInfo

Title: [apreder]MM_Jutra(2014)DVBSize: ~ 0.32 Gb - DVD-5Enabled regions: 1, 2, 3, 4, 5, 6, 7, 8
VTS_01 : Play Length: 00:13:23 Video: PAL 16:9 (720x576) VBR, Auto Letterboxed Audio: Francais (MPEG1, 2 ch) Subtitles: Russian Francais Deutsch Nederlands Romanian
ОбщееПолное имя : F:\My Torrents 3\[apreder]MINI_MOVIES_10\[apreder]MM_Jutra(2014)DVB\VIDEO_TS\VTS_01_1.VOBФормат : MPEG-PSРазмер файла : 332 МбайтПродолжительность : 13 м.Режим общего битрейта : ПеременныйОбщий поток : 3469 Кбит/сек
ВидеоИдентификатор : 224 (0xE0)Формат : MPEG VideoВерсия формата : Version 2Профиль формата : Main@MainПараметр BVOP формата : ДаПараметр матрицы формата : ВыборочнаяПараметр GOP формата : VariableFormat_Settings_PictureStructure : FrameПродолжительность : 13 м.Вид битрейта : ПеременныйБитрейт : 3208 Кбит/секШирина : 720 пикселейВысота : 576 пикселейСоотношение сторон : 16:9Частота кадров : 25,000 кадров/секСтандарт вещания : PALЦветовое пространство : YUVСубдискретизация насыщенности : 4:2:0Битовая глубина : 8 битТип развёртки : ЧересстрочнаяПорядок развёртки : Верхнее поле первоеМетод сжатия : С потерямиБит/(Пиксели*Кадры) : 0.309Временной код первого кадра : 00:00:00:00Оригинал временного кода : Group of pictures headerРазмер потока : 307 Мбайт (92%)
АудиоИдентификатор : 192 (0xC0)Формат : MPEG AudioВерсия формата : Version 1Профиль формата : Layer 2Продолжительность : 13 м.Вид битрейта : ПостоянныйБитрейт : 192 Кбит/секКаналы : 2 каналаЧастота : 48,0 КГцМетод сжатия : С потерямиРазмер потока : 18,4 Мбайт (6%)
Текст #1Идентификатор : 189 (0xBD)-32 (0x20)Формат : RLEФормат/Информация : Run-length encodingРежим смешивания : DVD-Video
Текст #2Идентификатор : 189 (0xBD)-33 (0x21)Формат : RLEФормат/Информация : Run-length encodingРежим смешивания : DVD-Video
Текст #3Идентификатор : 189 (0xBD)-34 (0x22)Формат : RLEФормат/Информация : Run-length encodingРежим смешивания : DVD-Video
Текст #4Идентификатор : 189 (0xBD)-35 (0x23)Формат : RLEФормат/Информация : Run-length encodingРежим смешивания : DVD-Video
Текст #5Идентификатор : 189 (0xBD)-36 (0x24)Формат : RLEФормат/Информация : Run-length encodingРежим смешивания : DVD-Video

Скриншот c названием фильма

Скриншоты

Резервные скриншоты

[teatrix.ru].t5258.torrent 
Торрент: Зарегистрирован [ 2015-10-09 00:45 ] · B473791C0FED1588FD966C7AC8AD05193B9FB110

Скачать .torrent

Скачать

14 KB

Статус: проверено
Скачан: 0 раз
Размер: 332 MB
terms.php



Быстрый ответ

Имя:

      
Для отправки сообщений необходимо включить JavaScript
Показать сообщения:    

Текущее время: 10-Дек 19:40

Часовой пояс: UTC + 3


Вы можете начинать темы
Вы можете отвечать на сообщения
Вы не можете редактировать свои сообщения
Вы не можете удалять свои сообщения
Вы не можете голосовать в опросах
Вы не можете прикреплять файлы к сообщениям
Вы можете скачивать файлы