В поисках дракона (Наталья Вощилова) [2013 г., Украина, музыкальная сказка, TVRip] Запорожский академический театр молодежи (ТЮЗ)


 

[Цитировать]

В поисках дракона
Название театра: Запорожский академический театр молодежи (ТЮЗ).
Год выпуска: 2013.
Страна: Украина .
Жанр: музыкальная сказка.
Продолжительность: 01:11:26.
Язык: Русский.
Режиссер: Наталья Вощилова.
Действующие лица и исполнители:
Дракон - Виктор Латышев,
Черепаха - Валерия Лотинская,
Обезьяна - Екатерина Макоед,
Кролик - Петр Желев,
Мама - Анастасия Макаренко,
Старший сын - Алексей Билецкий,
Младший брат - Юрий Драненко,
Ками, добрые силы природы - Алиса Божкова, Илона Василенко, Татьяна Ищук, Надежда Вечеря, Анна Симонова, Кира Фомина.
Описание:
Эта сказка создана по мотивам пьесы Анны Богачевой и японских народных сказок. Зрителей спектакля ждет путешествие в далекую, загадочную и прекрасную страну – в Японию.
В одном селении жили два брата, Итиро и Дзиро. Итиро, старший брат, был сильным и смелым, а младший брат Дзиро любил играть на флейте и петь песни. Однажды над селением пролетел дракон, люди испугались и стали ждать грозных событий. Но Итиро не испугался, он решил сразиться с драконом. Старший брат быстро собрался в опасный путь. Немного подумав, младший брат решил, что брату, конечно, понадобится помощь и пошел вслед за ним. Много приключений было на пути братьев. По дороге они встретили Обезьяну, Кролика и Черепаху. А вот кто из братьев быстрее добрался до Дракона, и кто оказался храбрее и умнее вы узнаете, когда посмотрите наш спектакль.

Дополнительная информация:
Выпущено: Запорожский академический театр молодежи (ТЮЗ), ГТРК "Культура" (Украина).
Автор: Анна Богачева.
Художник-постановщик: Татьяна Власенко.
Хореограф: Екатерина Кошовник.
Музыкальное оформление: Сергей Войтенко, Наталья Вощилова, Николай Середа.
Постановщик боев: инструктор Айкидо и Иайдо, обладатель Черного пояса I дан Айкидо и Черного пояса I дан Иайдо Денис Денисенко.
Художественный руководитель театра: заслуженный деятель искусств Украины Геннадий Фортус.
Видеозапись: 16 декабря 2013 года.

О спектакле.
Релиз
Рип sharky.

Качество видео:...TVRip
Формат:.................AVI
Видео:..704x400 (1.76:1), 25 fps, XviD build 47 ~1980 kbps avg, 0.28 bit/pixel
Аудио:..48 kHz, AC3 Dolby Digital, 2/0 (L,R) ch, ~192 kbps

Отчет Media Info

General
Complete name : V.poiskah.drakona_Zaporozhskij.ATM.2013.XviD.TVRip.fenixclub.avi
Format : AVI
Format/Info : Audio Video Interleave
File size : 1.09 GiB
Duration : 1h 11mn
Overall bit rate : 2 182 Kbps
Writing application : VirtualDubMod 1.5.10.2 (build 2540/release)
Writing library : VirtualDubMod build 2540/release
Video
ID : 0
Format : MPEG-4 Visual
Format profile : Advanced Simple@L5
Format settings, BVOP : 1
Format settings, QPel : No
Format settings, GMC : No warppoints
Format settings, Matrix : Default (H.263)
Codec ID : XVID
Codec ID/Hint : XviD
Duration : 1h 11mn
Bit rate : 1 981 Kbps
Width : 704 pixels
Height : 400 pixels
Display aspect ratio : 16:9
Frame rate : 25.000 fps
Color space : YUV
Chroma subsampling : 4:2:0
Bit depth : 8 bits
Scan type : Progressive
Compression mode : Lossy
Bits/(Pixel*Frame) : 0.281
Stream size : 1 012 MiB (91%)
Writing library : XviD 1.2.0.dev47 (UTC 2006-11-01)
Audio
ID : 1
Format : AC-3
Format/Info : Audio Coding 3
Mode extension : CM (complete main)
Format settings, Endianness : Big
Codec ID : 2000
Duration : 1h 11mn
Bit rate mode : Constant
Bit rate : 192 Kbps
Channel(s) : 2 channels
Channel positions : Front: L R
Sampling rate : 48.0 KHz
Compression mode : Lossy
Stream size : 98.1 MiB (9%)
Alignment : Split accross interleaves
Interleave, duration : 40 ms (1.00 video frame)
Interleave, preload duratio : 500 ms.

Скриншоты


Альтернативный хост





Показать сообщения:    

Текущее время: 03-Дек 16:46

Часовой пояс: UTC + 3


Вы не можете начинать темы
Вы не можете отвечать на сообщения
Вы не можете редактировать свои сообщения
Вы не можете удалять свои сообщения
Вы не можете голосовать в опросах
Вы не можете прикреплять файлы к сообщениям
Вы не можете скачивать файлы