Мужество жить (Давид Карасик) [1972 г., драма, биографический, телеспектакль, WEB-DLRip]


 

[Цитировать]

Мужество жить Год выпуска: 1972.
Жанр: драма, биографический, телеспектакль.
Продолжительность: 00:20:11.
Режиссер: Давид Карасик.
В ролях:
Леонид Неведомский, Анатолий Пустохин, Леонид Леонидов, Виктор Костецкий, Валерий Кузин и др.
О спектакле:
По повести Бориса Костюковского "Земные братья" - о трагической судьбе Бориса Гайнулина, бригадира комсомольской бригады на строительстве Братской ГЭС.
7 мая 1959 года с Борисом Гайнулиным случился несчастный случай - он сорвался со скалы при бурильных работах и получил тяжелейшие травмы позвоночника, в результате которых наступил паралич ног, приковавший его к постели. Несмотря на нетрудоспособность, Гайнулин не сдался и стал комсомольским активистом, символом героизма, стойкости и мужества. Его невольно сравнивали с Павкой Корчагиным. За комсомольскую активность и работу с молодежью Гайнулин был награждён орденом Трудового Красного Знамени и почетным знаком ЦК ВЛКСМ № 1 (при этом знаком № 2 был награждён Юрий Алексеевич Гагарин, который наотрез отказался принимать Знак № 1, узнав о героическом бригадире), а также ему было присвоено звания Героя Социалистического Труда.

Дополнительная информация:
Страна: СССР .
Выпущено: Ленинградское телевидение.
Автор: Борис Гайнулин.
Релиз
Рип lesik689 .

Качество видео:...WEB-DLRip
Формат:.................AVI
Видео:..640x480 (1.33:1), 25 fps, XviD build 64 ~1603 kbps avg, 0.21 bit/pixel
Аудио:..44.100 kHz, MPEG Layer 3, 2 ch, ~128.00 kbps avg

Отчет Media Info

General
Complete name : Muzhestvo.zhit'.1972.XviD.WEB-DL-Rip.fenixclub.avi
Format : AVI
Format/Info : Audio Video Interleave
File size : 251 MiB
Duration : 20mn 11s
Overall bit rate : 1 741 Kbps
Writing application : VirtualDubMod 1.5.10.2 (build 2542/release)
Writing library : VirtualDubMod build 2542/release
Video
ID : 0
Format : MPEG-4 Visual
Format profile : Advanced Simple@L5
Format settings, BVOP : 2
Format settings, QPel : No
Format settings, GMC : No warppoints
Format settings, Matrix : Default (MPEG)
Codec ID : XVID
Codec ID/Hint : XviD
Duration : 20mn 11s
Bit rate : 1 603 Kbps
Width : 640 pixels
Height : 480 pixels
Display aspect ratio : 5:4
Original display aspect rat : 4:3
Frame rate : 25.000 fps
Color space : YUV
Chroma subsampling : 4:2:0
Bit depth : 8 bits
Scan type : Progressive
Compression mode : Lossy
Bits/(Pixel*Frame) : 0.209
Stream size : 231 MiB (92%)
Writing library : XviD 64
Audio
ID : 1
Format : MPEG Audio
Format version : Version 1
Format profile : Layer 3
Mode : Joint stereo
Mode extension : MS Stereo
Codec ID : 55
Codec ID/Hint : MP3
Duration : 20mn 11s
Bit rate mode : Constant
Bit rate : 128 Kbps
Channel(s) : 2 channels
Sampling rate : 44.1 KHz
Compression mode : Lossy
Delay relative to video : 200ms
Stream size : 18.5 MiB (7%)
Alignment : Split accross interleaves
Interleave, duration : 40 ms (1.00 video frame)
Interleave, preload duratio : 500 ms.

Скриншоты

Альтернативный хост




Показать сообщения:    

Текущее время: 08-Дек 21:12

Часовой пояс: UTC + 3


Вы не можете начинать темы
Вы не можете отвечать на сообщения
Вы не можете редактировать свои сообщения
Вы не можете удалять свои сообщения
Вы не можете голосовать в опросах
Вы не можете прикреплять файлы к сообщениям
Вы не можете скачивать файлы