Бабы (Валерия Бородина) [2012 г., мелодрама, TVRip] Театр "Театральный ОсобнякЪ"


 

[Цитировать]

Бабы Название театра: Театр "Театральный ОсобнякЪ".
Жанр: мелодрама.
Год выпуска: 2012.
Продолжительность: 01:03:50.
Режиссер: Валерия Бородина.
Действующие лица и исполнители:
Дюдя - Геннадий Юдин,
Матвей Савич - Дмитрий Бедарев,
Варвара - Асия Хазиахметова,
Афанасьевна - Виктория Мороз,
Софья - Екатерина Невакшонова,
Алешка - Андрей Ворошилов,
Машенька - Юлия Ворошилова,
Вася - Алексей Селиверстов,
Кузька - Миша Богданов,
Попович - Алексей Васюков.
Описание:
По рассказам Антона Павловича Чехова.
В селе Райбуже, как раз против церкви, стоит двухэтажный дом на каменном фундаменте и с железной крышей. В нижнем этаже живет со своей семьей сам хозяин, Филипп Иванов Кашин, по прозванию Дюдя, а в верхнем, где летом бывает очень жарко, а зимою очень холодно, останавливаются проезжие чиновники, купцы и помещики.
В один июньский вечер, когда заходило солнце и в воздухе пахло сеном, теплым навозом и парным молоком, во двор к Дюде въехала простая повозка, на которой сидело трое: мужчина лет тридцати в парусинковом костюме, рядом с ним мальчик, лет семи-восьми, в длинном черном сюртуке с большими костяными пуговицами, и молодой парень в красной рубахе за кучера.
Спектакль наполнен русским колоритом: песни, танцы, прибаутки, погружают в деревенскую жизнь начала XX века. Этот спектакль - путешествие во времени. И зритель оказывается как-будто на заваленке дома Дюди, и вместе с хозяином переживает рассказ приезжих...

Дополнительная информация:
Страна: Россия .
Выпущено: © Ol Right, DomMedia, LLC.
Автор: Антон Чехов.
В фильме использована запись Русского Камерного Оркестра.
Дирижер:
Сергей Проскурин.
Художественный руководитель театра "Театральный ОсобнякЪ": заслуженный работник культуры России Леонид Краснов.

О спектакле.
Релиз

Качество: TVRip
Формат: AVI
Видео:..720x400 (1.80:1), 29.970 fps, XviD MPEG-4 ~1493 kbps avg, 0.17 bit/pixel
Аудио:..44.100 kHz, MPEG Layer 3, 2 ch, ~128.00 kbps avg

Отчет Media Info

Общее
Полное имя : Baby_Teatral'nyj.Osobnyak.2012.XviD.TVRip.fenixclub.avi
Format : AVI
Format/Info : Audio Video Interleave
File size : 746 MiB
Duration : 1h 3mn
Overall bit rate : 1 633 Kbps
Writing application : VirtualDubModRus 1.5.10.2 (build 2542/release)
Writing library : VirtualDub build 32842/release
Video
ID : 0
Format : MPEG-4 Visual
Format profile : Advanced Simple@L5
Format settings, BVOP : 2
Format settings, QPel : No
Format settings, GMC : No warppoints
Format settings, Matrix : Default (MPEG)
Codec ID : XVID
Codec ID/Hint : XviD
Duration : 1h 3mn
Bit rate : 1 493 Kbps
Width : 720 pixels
Height : 400 pixels
Display aspect ratio : 16:9
Frame rate : 29.970 fps
Color space : YUV
Chroma subsampling : 4:2:0
Bit depth : 8 bits
Scan type : Progressive
Compression mode : Lossy
Bits/(Pixel*Frame) : 0.173
Stream size : 682 MiB (91%)
Writing library : XviD 73
Audio
ID : 1
Format : MPEG Audio
Format version : Version 1
Format profile : Layer 3
Mode : Joint stereo
Mode extension : MS Stereo
Codec ID : 55
Codec ID/Hint : MP3
Duration : 1h 3mn
Bit rate mode : Constant
Bit rate : 128 Kbps
Channel(s) : 2 channels
Sampling rate : 44.1 KHz
Compression mode : Lossy
Stream size : 58.4 MiB (8%)
Alignment : Split accross interleaves
Interleave, duration : 33 ms (1.00 video frame)
Interleave, preload duratio : 500 ms
Writing library : LAME3.98.2

Скриншоты

Альтернативный хост




Показать сообщения:    

Текущее время: 06-Дек 22:48

Часовой пояс: UTC + 3


Вы не можете начинать темы
Вы не можете отвечать на сообщения
Вы не можете редактировать свои сообщения
Вы не можете удалять свои сообщения
Вы не можете голосовать в опросах
Вы не можете прикреплять файлы к сообщениям
Вы не можете скачивать файлы