Метелица / Военнопленные (Мар Сулимов) [1967 г., драма, экранизация, телеспектакль, WEB-DLRip]


 

[Цитировать]

Метелица / Военнопленные (2 части) Год выпуска: 1967.
Жанр: драма, экранизация, телеспектакль.
Продолжительность: 00:57:33 + 01:10:44 (02:08:17).
Режиссер: Мар Сулимов.
Действующие лица и исполнители:
Ярош - Григорий Гай
Меркулов - народный артист РСФСР Ефим Копелян,
Гречка - заслуженный артист РСФСР, заслуженный артист Эстонской ССР Михаил Ладыгин,
Пархомов - заслуженный артист РСФСР Борис Рыжухин,
Еремеев - заслуженный артист РСФСР Игнат Лейрер,
Новиков - Анатолий Гаричев,
Болютин - Иван Краско,
Шарафутдинов - Валерий Караваев,
Дахно - Иван Пальму,
Коели - заслуженный артист РСФСР Алексей Егоров,
Валя - Татьяна Тарасова,
Лутс - заслуженный артист РСФСР Павел Панков,
Сепре - Николай Семилетов,
Теесалу - заслуженный артист Грузинской ССР Юрий Шевчук,
Вегер - заслуженный артист РСФСР Сергей Карнович-Валуа,
Хемпель - Изиль Заблудовский,
Бабушка - Александра (Алиса) Корвет,
Мать - Зинаида Афанасенко,
Внучка - Галина Демидова,
Раввинша - заслуженная артистка РСФСР Мария Призван-Соколова.
О спектакле:
По повести Веры Пановой о жизни советских военнопленных в Эстонии.
Пьеса "Метелица" ("Военнопленные") написана Верой Пановой в 1942 г., опубликована в 1957 г. История создания пьесы сложна и необычна.
В ней отразились наиболее тяжелые переживания первых месяцев войны и жизни на оккупированной территории. Изгнанная вместе с жителями из города Пушкина, Вера Панова с четырнадцатилетней дочерью Наташей и пожилой хозяйкой квартиры Н. В. Сперанской решили пробираться по захваченной врагом земле в далекое украинское село Шишаки, где оставались её малолетние сыновья с бабушками. Дорога привела их
в Нарву. Здесь полицейский не разрешил беженкам оставаться на частной квартире, где они нашли приют, и велел идти в барак для пленных, размещённый в здании городской синагоги. "По узкой лестнице, - вспоминает Вера Панова, - мы поднялись на хоры, там были нары, устланные соломой, здесь нам предстояло жить сколько-то времени. Потом пришла раввинша, маленькая, страшная, похожая на сверток каких-то траурных лоскутов, вдова раввина, убитого немцами в числе других нарвских евреев. У неё убили всех, вплоть до внуков и правнуков, она одна жила
в опустевшей, оледеневшей квартире и просила у всех, в том числе и у нас, чтобы ей привезли дров. Одну из ночей мы ночевали в этой квартире, набитой свалявшейся овечьей шерстью, и всю ночь мне снились те, кого увели отсюда, чтобы убить. А те оборванные люди в синагоге были пленные военнопленные с Эзеля и других островов. Бургомистр Нарвы выпросил их у немецкого командования для городских работ
и поселил в синагоге вместе с беженцами. ...Вот как выглядело то, что я потом описала в пьесе "Метелица"..." (Из книги "О моей жизни")

Дополнительная информация:
Страна: СССР .
Выпущено: Ленинградское телевидение.
Автор: Вера Панова.
Композитор: Яков Вайсбурд.
Художник: Геннадий Дрейман.
Ведущий оператор: Владимир Дединкин.
Релиз
Рип lesik689 .

Качество видео:...WEB-DLRip
Формат:.................AVI
Видео:..640x480 (1.33:1), 25 fps, XviD build 64 ~1803 kbps avg, 0.23 bit/pixel
Аудио:..48 kHz, MPEG Layer 3, 2 ch, ~128.00 kbps avg

Отчет Media Info

1-я часть
General
Complete name : Metelitsa.(2.chasti.iz.2).1967.XviD.WEB-DLRip.fenixclub\Metelitsa.1967.Chast'_1.avi
Format : AVI
Format/Info : Audio Video Interleave
File size : 798 MiB
Duration : 57mn 32s
Overall bit rate : 1 940 Kbps
Video
ID : 0
Format : MPEG-4 Visual
Format profile : Advanced Simple@L5
Format settings, BVOP : 1
Format settings, QPel : No
Format settings, GMC : No warppoints
Format settings, Matrix : Default (MPEG)
Codec ID : XVID
Codec ID/Hint : XviD
Duration : 57mn 32s
Bit rate : 1 802 Kbps
Width : 640 pixels
Height : 480 pixels
Display aspect ratio : 3:2
Frame rate : 25.000 fps
Color space : YUV
Chroma subsampling : 4:2:0
Bit depth : 8 bits
Scan type : Progressive
Compression mode : Lossy
Bits/(Pixel*Frame) : 0.235
Stream size : 742 MiB (93%)
Writing library : XviD 64
Audio
ID : 1
Format : MPEG Audio
Format version : Version 1
Format profile : Layer 3
Mode : Joint stereo
Mode extension : MS Stereo
Codec ID : 55
Codec ID/Hint : MP3
Duration : 57mn 32s
Bit rate mode : Constant
Bit rate : 128 Kbps
Channel(s) : 2 channels
Sampling rate : 48.0 KHz
Compression mode : Lossy
Stream size : 52.7 MiB (7%)
Alignment : Split accross interleaves
Interleave, duration : 40 ms (1.00 video frame)
Interleave, preload duratio : 500 ms.
2-я часть
General
Complete name : Metelitsa.(2.chasti.iz.2).1967.XviD.WEB-DLRip.fenixclub\Metelitsa.1967.Chast'_2.avi
Format : AVI
Format/Info : Audio Video Interleave
File size : 982 MiB
Duration : 1h 10mn
Overall bit rate : 1 941 Kbps
Video
ID : 0
Format : MPEG-4 Visual
Format profile : Advanced Simple@L5
Format settings, BVOP : 1
Format settings, QPel : No
Format settings, GMC : No warppoints
Format settings, Matrix : Default (MPEG)
Codec ID : XVID
Codec ID/Hint : XviD
Duration : 1h 10mn
Bit rate : 1 804 Kbps
Width : 640 pixels
Height : 480 pixels
Display aspect ratio : 3:2
Frame rate : 25.000 fps
Color space : YUV
Chroma subsampling : 4:2:0
Bit depth : 8 bits
Scan type : Progressive
Compression mode : Lossy
Bits/(Pixel*Frame) : 0.235
Stream size : 913 MiB (93%)
Writing library : XviD 64
Audio
ID : 1
Format : MPEG Audio
Format version : Version 1
Format profile : Layer 3
Mode : Joint stereo
Mode extension : MS Stereo
Codec ID : 55
Codec ID/Hint : MP3
Duration : 1h 10mn
Bit rate mode : Constant
Bit rate : 128 Kbps
Channel(s) : 2 channels
Sampling rate : 48.0 KHz
Compression mode : Lossy
Stream size : 64.8 MiB (7%)
Alignment : Split accross interleaves
Interleave, duration : 40 ms (0.99 video frame)
Interleave, preload duratio : 500 ms.

Скриншоты


Альтернативный хост





Показать сообщения:    

Текущее время: 05-Дек 03:31

Часовой пояс: UTC + 3


Вы не можете начинать темы
Вы не можете отвечать на сообщения
Вы не можете редактировать свои сообщения
Вы не можете удалять свои сообщения
Вы не можете голосовать в опросах
Вы не можете прикреплять файлы к сообщениям
Вы не можете скачивать файлы