Дон Кихот ведет бой (Александр Белинский) [1967 г., драма, экранизация, телеспектакль, WEB-DLRip]


 

[Цитировать]

Дон Кихот ведет бой Год выпуска: 1967.
Жанр: драма, экранизация, телеспектакль.
Продолжительность: 01:03:17.
Режиссер: Александр Белинский.
В ролях:
Леонид Дьячков, Сергей Юрский, Елизавета Акуличева, Анатолий Пустохин, Нина Василькова.
О спектакле:
По одноимённой пьесе Вадима Коростылева.
О первой русской экспедиции на Северный полюс. Полярный исследователь Егор Седой, не найдя поддержки у министров царского правительства, организует экспедицию на частные пожертвования заинтересованных лиц. На пути к полюсу, конечной цели Седого, он, обманутый поставщиками, погибает.

Дополнительная информация:
Страна: СССР .
Выпущено: Ленинградское телевидение.
Автор: Вадим Коростылев.
Художник: Александр Евграфов.
Ведущий оператор: Сергей Мищук.
Релиз
Рип lesik689 .

Качество видео:...WEB-DLRip
Формат:.................AVI
Видео:..640x480 (1.33:1), 25 fps, XviD build 64 ~1903 kbps avg, 0.25 bit/pixel
Аудио:..48 kHz, MPEG Layer 3, 2 ch, ~128.00 kbps avg

Отчет Media Info

General
Complete name : Don.Kihot.vedyot.boj.1967.XviD.WEB-DLRip.fenixclub.avi
Format : AVI
Format/Info : Audio Video Interleave
File size : 924 MiB
Duration : 1h 3mn
Overall bit rate : 2 041 Kbps
Video
ID : 0
Format : MPEG-4 Visual
Format profile : Advanced Simple@L5
Format settings, BVOP : 1
Format settings, QPel : No
Format settings, GMC : No warppoints
Format settings, Matrix : Default (MPEG)
Codec ID : XVID
Codec ID/Hint : XviD
Duration : 1h 3mn
Bit rate : 1 903 Kbps
Width : 640 pixels
Height : 480 pixels
Display aspect ratio : 4:3
Frame rate : 25.000 fps
Color space : YUV
Chroma subsampling : 4:2:0
Bit depth : 8 bits
Scan type : Progressive
Compression mode : Lossy
Bits/(Pixel*Frame) : 0.248
Stream size : 862 MiB (93%)
Writing library : XviD 64
Audio
ID : 1
Format : MPEG Audio
Format version : Version 1
Format profile : Layer 3
Mode : Joint stereo
Mode extension : MS Stereo
Codec ID : 55
Codec ID/Hint : MP3
Duration : 1h 3mn
Bit rate mode : Constant
Bit rate : 128 Kbps
Channel(s) : 2 channels
Sampling rate : 48.0 KHz
Compression mode : Lossy
Stream size : 57.9 MiB (6%)
Alignment : Split accross interleaves
Interleave, duration : 40 ms (1.00 video frame)
Interleave, preload duratio : 500 ms

Скриншоты

Альтернативный хост




Показать сообщения:    

Текущее время: 06-Дек 13:15

Часовой пояс: UTC + 3


Вы не можете начинать темы
Вы не можете отвечать на сообщения
Вы не можете редактировать свои сообщения
Вы не можете удалять свои сообщения
Вы не можете голосовать в опросах
Вы не можете прикреплять файлы к сообщениям
Вы не можете скачивать файлы