Я... Она... не Я... и Я (Алексей Янковский) [2001, Россия, моноспектакль, CamRip] Театральная мастерская "АСБ", Театр «Особняк»


 

[Цитировать]

«Я... Она... не Я... и Я»
Название театра: Театральная мастерская "АСБ", Театр «Особняк»
Страна: Россия
Жанр: моноспектакль, метафизика
Год выпуска: 2001
Продолжительность: 01:36:34
Перевод: Не требуется
Язык: Русский
Cубтитры: нет
Оригинальная аудиодорожка: русский
Драматург: Клим
Режиссёр: Алексей Янковский
Продюсер: Алла Лыкова
В ролях: Александр Лыков
Описание: Клим написал этот текст специально для актера Александра Лыкова, и его второе название — «План побега» — прямо говорит о внутреннем сюжете: метафизической и реальной истории побега Лыкова-Казановы из знаменитого сериала «Бандитский Петербург», записанной в судорожных, интимных интонациях исповеди. Вооружившись текстом Клима, Лыков превращает исповедь в гипертеатральную игру: скорость и страсть его речи поражают своей изощренностью и высокой техникой, но смысл всех этих ухищрений — в намерении оставаться предельным и подлинным каждую секунду игры. Полтора часа экстремального театрального приключения, в котором по-настоящему страшно за актера.
(www.newdrama.ru)
Странный, поэтический и текучий, исполненный философских сентенций и грубоватого юмора, чрезмерный в своей красоте, он настаивает на праве театра говорить об экзистенциальной тоске со страстностью интимной исповеди.
Лыков начинал играть этот спектакль в маленьком питерском театрике «Особняк». Но где бы он ни играл, его нескончаемый крик нуждается в поднебесных просторах.
Лыков кричит. Кричит весь спектакль, идущий почти час. Крик несется на невероятной скорости. Криком и нечеловеческой скоростью игры он пробивает каналы огромной эмоциональной и духовной силы. Кто я? Кто эта женщина, эта Психея, от тоски по которой взрывается земная жизнь?
(Российская газета / 29-09-2003)

Спектакли «Я… Она… Не Я и Я…» и «Активная сторона бесконечности» в 2004-ом году были включены в праздничную программу фестиваля «Золотая маска» и государственной премии в номинации театральное искусство.

Доп. информация:
И этот спектакль часть моего плана побега
Попытка бежать из тюрьмы собственных страхов
И моей бездарности которая и есть мой страх
(Клим)

"Спектакль, сделанный по пьесе Клима, мистическим образом несет в себе тайну соприкосновения с духом Антонена Арто, и проанализировать это явление не представляется возможным в полной мере."
(Мария Смирнова-Несвицкая)
"После спектакля я не могла аплодировать, было желание выйти на сцену и просто постоять рядом с Сашей Лыковым. Мне тогда разбили сердце, и… я и иду в театр затем, чтобы мне разбили сердце."
(Татьяна Бондарева)
Качество видео: CamRip
Формат видео: AVI
Сэмпл: https://yadi.sk/i/iFbxcZ_ZjTS9z
Видео: XviD, 640x512 pixels, 5:4, 25.000 fps, 839 Kbps
Аудио: Rus, MPEG Audio, 44.1 KHz, 160 Kbps, Joint stereo

MediaInfo

D:\Документы\1\ASB_Ya.Ona.NeYa.iYa_2001.avi
General
Complete name : D:\Документы\1\ASB_Ya.Ona.NeYa.iYa_2001.avi
Format : AVI
Format/Info : Audio Video Interleave
Duration : 01:36:34
Overall bit rate : 971 Kbps
Writing application : transcode-1.0.2
Video
Format : MPEG-4 Visual
Format profile : Simple@L1
Format settings, BVOP : No
Format settings, QPel : No
Format settings, GMC : No warppoints
Format settings, Matrix : Default
Codec ID : DX50
Codec ID/Hint : DivX 5
Bit rate : 830 Kbps
Width : 640 pixels
Height : 512 pixels
Display aspect ratio : 5/4
Frame rate : 25.000 fps
Resolution : 24 bits
Colorimetry : 4:2:0
Scan type : Progressive
Bits/(Pixel*Frame) : 0.101
Stream size : 5.25 MiB (86%)
Writing library : Lavc51.40.4
Audio
Format : MPEG Audio
Format version : Version 1
Format profile : Layer 3
Codec ID : 55
Codec ID/Hint : MP3
Bit rate mode : Constant
Bit rate : 128 Kbps
Channel(s) : 2 channels
Sampling rate : 44.1 KHz
Resolution : 16 bits
Stream size : 829 KiB (13%)
Alignment : Aligned on interleaves
Interleave, duration : 26 ms (0.65 video frame)
Interleave, preload duration : 52 ms

Скриншоты


Другие мои раздачи

* Эта запись - раритет. Просьба как можно дольше находится в сидерах (seeds)
* Другие мои раздачи в разделе ~Театр~



Показать сообщения:    

Текущее время: 08-Дек 21:14

Часовой пояс: UTC + 3


Вы не можете начинать темы
Вы не можете отвечать на сообщения
Вы не можете редактировать свои сообщения
Вы не можете удалять свои сообщения
Вы не можете голосовать в опросах
Вы не можете прикреплять файлы к сообщениям
Вы не можете скачивать файлы