Взрывы на уроках (Михаил Фалкин) [1969 г., комедия, детский, музыкальный, телеспектакль, WEB-DLRip]


 

[Цитировать]

Взрывы на уроках Год выпуска: 1969.
Жанр: комедия, детский, музыкальный, телеспектакль.
Продолжительность: 00:57:27.
Режиссер: Михаил Фалкин.
Действующие лица и исполнители:
Дина Борисовна - Наталия Тенякова,
Сергей Яковлевич, завуч - заслуженный артист РСФСР Николай Карамышев,
Инспектор РОНО - Зинаида Дорогова,
Студент - Эмануил Виторган,
Татьяна Васильевна - заслуженная артистка РСФСР Нина Ольхина,
Глеб Зенуков - Александр Подошвин,
Сенька, ешо брат - Михаил Федоров,
Толян - Виктор Зуев,
Дергачев - Алексей Мешков,
Басманцев - Павел Ларионов,
Косминский - Василий Филиппов,
Свиристелкин - Александр Резник,
Семенова - Алла Грикурова,
Сумкина - Людмила Меркуляева.
А также: Александр Гайнов, Юрий Смирнов, Юлия Фишман, Ольга Зубарева и другие ленинградские школьники.
О спектакле:
По повести Игоря Ефимова.
Телеспектакль о дружном классе и их новой учительнице Дине Борисовне, которая нарушает каноны ведения урока, отчего детям становится гораздо интереснее учиться.

Дополнительная информация:
Страна: СССР .
Выпущено: Ленинградское телевидение.
Автор: Игорь Ефимов.
Художник: Геннадий Романов.
Композитор: Игорь Цветков.
Текст песен: Александр Кушнер.
Ведущий оператор: В. Минюков.
Релиз
Рип lesik689 .

Качество видео:...WEB-DLRip
Формат:.................AVI
Видео:..640x480 (1.33:1), 25 fps, XviD build 64 ~1803 kbps avg, 0.23 bit/pixel
Аудио:..48 kHz, MPEG Layer 3, 2 ch, ~128.00 kbps avg

Отчет Media Info

General
Complete name : Vzryvy.na.urokah.1969.XviD.WEB-DLRip.fenixclub.avi
Format : AVI
Format/Info : Audio Video Interleave
File size : 798 MiB
Duration : 57mn 27s
Overall bit rate : 1 941 Kbps
Video
ID : 0
Format : MPEG-4 Visual
Format profile : Advanced Simple@L5
Format settings, BVOP : 1
Format settings, QPel : No
Format settings, GMC : No warppoints
Format settings, Matrix : Default (MPEG)
Codec ID : XVID
Codec ID/Hint : XviD
Duration : 57mn 27s
Bit rate : 1 803 Kbps
Width : 640 pixels
Height : 480 pixels
Display aspect ratio : 4:3
Frame rate : 25.000 fps
Color space : YUV
Chroma subsampling : 4:2:0
Bit depth : 8 bits
Scan type : Progressive
Compression mode : Lossy
Bits/(Pixel*Frame) : 0.235
Stream size : 741 MiB (93%)
Writing library : XviD 64
Audio
ID : 1
Format : MPEG Audio
Format version : Version 1
Format profile : Layer 3
Mode : Joint stereo
Mode extension : MS Stereo
Codec ID : 55
Codec ID/Hint : MP3
Duration : 57mn 27s
Bit rate mode : Constant
Bit rate : 128 Kbps
Channel(s) : 2 channels
Sampling rate : 48.0 KHz
Compression mode : Lossy
Stream size : 52.6 MiB (7%)
Alignment : Split accross interleaves
Interleave, duration : 40 ms (1.00 video frame)
Interleave, preload duratio : 500 ms

Скриншоты

Альтернативный хост




Показать сообщения:    

Текущее время: 04-Дек 13:08

Часовой пояс: UTC + 3


Вы не можете начинать темы
Вы не можете отвечать на сообщения
Вы не можете редактировать свои сообщения
Вы не можете удалять свои сообщения
Вы не можете голосовать в опросах
Вы не можете прикреплять файлы к сообщениям
Вы не можете скачивать файлы