Александр Дюма. Белоснежка [2015 г., Литературно-музыкальная композиция, WEB-DLRip] Из цикла "Сказки с оркестром"


 

[Цитировать]

Александр Дюма. Белоснежка Из цикла "Сказки с оркестром".
Год выпуска: 2015.
Жанр: Литературно-музыкальная композиция.
Продолжительность: 01:11:34.
Сказку читает: Ольга Будина.
Описание:
Сказка Александра Дюма-отца из сборника "Папаша Жигонь" ("Сказки папаши Клуши" - "Le Pere Gigogne") - "Белоснежка" ("Blanche de Neige") - 1858 г.
Дополнительная информация:
Страна: Россия .
По сказке Александра Дюма-отца.
Запись из концертного зала имени Чайковского.
Академический симфонический оркестр Московской филармонии.
Дирижер:
Игорь Манашеров.
Ансамбль солистов "Мадригал" Московской филармонии.
Звучит музыка: Гийома де Машо, Клемана Жанекена, Жана-Батиста Безара, Жана-Батиста Люлли, Карла Марии фон Вебера, Камиля Сен-Санса, Лео Делиба, Жюля Массне, Эдуарда Элгара, Густава Малера, Рихарда Штрауса, Яна Сибелиуса.
Концерт состоялся 20.09.2015 года.
Абонемент №59А:
Сказки с оркестром. Избранное.

Релиз
Рип lesik689 .

Качество видео:...WEB-DLRip
Формат:.................AVI
Видео:..704x400 (1.76:1), 25 fps, XviD build 64 ~1501 kbps avg, 0.21 bit/pixel
Аудио:..44.100 kHz, MPEG Layer 3, 2 ch, ~128.00 kbps avg

Отчет MI

General
Complete name : Skazki.s.orkestrom.A.Dyuma.Belosnezhka.2015.XviD.WEB-DLRip.fenixclub.avi
Format : AVI
Format/Info : Audio Video Interleave
File size : 839 MiB
Duration : 1h 11mn
Overall bit rate : 1 640 Kbps
Writing application : VirtualDubMod 1.5.10.2 (build 2542/release)
Writing library : VirtualDubMod build 2542/release
Video
ID : 0
Format : MPEG-4 Visual
Format profile : Advanced Simple@L5
Format settings, BVOP : 2
Format settings, QPel : No
Format settings, GMC : No warppoints
Format settings, Matrix : Default (MPEG)
Codec ID : XVID
Codec ID/Hint : XviD
Duration : 1h 11mn
Bit rate : 1 502 Kbps
Width : 704 pixels
Height : 400 pixels
Display aspect ratio : 16:9
Frame rate : 25.000 fps
Color space : YUV
Chroma subsampling : 4:2:0
Bit depth : 8 bits
Scan type : Progressive
Compression mode : Lossy
Bits/(Pixel*Frame) : 0.213
Stream size : 769 MiB (92%)
Writing library : XviD 64
Audio
ID : 1
Format : MPEG Audio
Format version : Version 1
Format profile : Layer 3
Mode : Joint stereo
Mode extension : MS Stereo
Codec ID : 55
Codec ID/Hint : MP3
Duration : 1h 11mn
Bit rate mode : Constant
Bit rate : 128 Kbps
Channel(s) : 2 channels
Sampling rate : 44.1 KHz
Compression mode : Lossy
Stream size : 65.5 MiB (8%)
Alignment : Split accross interleaves
Interleave, duration : 40 ms (1.00 video frame)
Interleave, preload duratio : 500 ms.

Скриншоты

Альтернативный хост




Показать сообщения:    

Текущее время: 09-Дек 04:54

Часовой пояс: UTC + 3


Вы не можете начинать темы
Вы не можете отвечать на сообщения
Вы не можете редактировать свои сообщения
Вы не можете удалять свои сообщения
Вы не можете голосовать в опросах
Вы не можете прикреплять файлы к сообщениям
Вы не можете скачивать файлы