Бабье царство (Юрий Маляцкий) [1976 г., мелодрама, телеспектакль, WEB-DLRip]


 

[Цитировать]

Бабье царство Год выпуска: 1976.
Жанр: мелодрама, телеспектакль.
Продолжительность: 01:06:44.
Режиссер-постановщик: Юрий Маляцкий.
В ролях:
Наталья Тенякова, Леонид Неведомский, Олег Басилашвили, заслуженный артист РСФСР Павел Панков, Ефим Каменецкий, Альбина Федеряева, Татьяна Иванова, Александр Романцов, Георгий Тейх, Мария Пичикова, Ирина Соколова, Клавдия Фадеева.
О спектакле:
Телеспектакль по одноименному рассказу Антона Павловича Чехова.
Один, предрождественский, день из жизни Анны Акимовны, девушки двадцати шести лет. Анна Акимовна происходит из низкого сословия, в детстве знала трудные времена, но теперь она богатая наследница, фабрикантша; после смерти отца вынуждена управлять заводом. Не женское это дело и не по душе оно Анне. Разбирая письма просителей, она желает простого бабьего счастья, чтобы устать к вечеру от хлопот по дому и уснуть, утомившись. Ей же придется сидеть до полуночи, ничего не делая, и ожидать, пока придет сон. Несчастный случай на заводе, скандал, увольнения... Выйти бы замуж - да, замуж, и за рабочего, простого мужчину, ведь и сама она выросла в семье рабочего, бегала за продуктами, работала по дому. Ей, миллионерше, ничего не стоит выбрать любого мужчину и осчастливить его...

Дополнительная информация:
Страна: СССР .
Выпущено: Ленинградское телевидение.
Автор сценария и режиссёр: Юрий Маляцкий.
Композитор: Евгений Шендерович.
Художник: Владимир Терешин.
Ведущий оператор: Михаил Филиппов.
Релиз
Рип lesik689.

Качество видео:...WEB-DLRip
Формат:.................AVI
Видео:..640x480 (1.33:1), 25 fps, XviD build 64 ~1798 kbps avg, 0.23 bit/pixel
Аудио:..44.100 kHz, MPEG Layer 3, 2 ch, ~128.00 kbps avg

Отчет Media Info

General
Complete name : Babje.carstvo.1976.XviD.WEB_DLRip.fenixclub.avi
Format : AVI
Format/Info : Audio Video Interleave
File size : 924 MiB
Duration : 1h 6mn
Overall bit rate : 1 936 Kbps
Writing application : VirtualDubMod 1.5.10.2 (build 2542/release)
Writing library : VirtualDubMod build 2542/release
Video
ID : 0
Format : MPEG-4 Visual
Format profile : Advanced Simple@L5
Format settings, BVOP : 2
Format settings, QPel : No
Format settings, GMC : No warppoints
Format settings, Matrix : Default (MPEG)
Codec ID : XVID
Codec ID/Hint : XviD
Duration : 1h 6mn
Bit rate : 1 798 Kbps
Width : 640 pixels
Height : 480 pixels
Display aspect ratio : 5:4
Original display aspect rat : 4:3
Frame rate : 25.000 fps
Color space : YUV
Chroma subsampling : 4:2:0
Bit depth : 8 bits
Scan type : Progressive
Compression mode : Lossy
Bits/(Pixel*Frame) : 0.234
Stream size : 858 MiB (93%)
Writing library : XviD 64
Audio
ID : 1
Format : MPEG Audio
Format version : Version 1
Format profile : Layer 3
Mode : Joint stereo
Mode extension : MS Stereo
Codec ID : 55
Codec ID/Hint : MP3
Duration : 1h 6mn
Bit rate mode : Constant
Bit rate : 128 Kbps
Channel(s) : 2 channels
Sampling rate : 44.1 KHz
Compression mode : Lossy
Stream size : 61.0 MiB (7%)
Alignment : Split accross interleaves
Interleave, duration : 40 ms (1.00 video frame)
Interleave, preload duratio : 501 ms.

Скриншоты


Альтернативный хост





Показать сообщения:    

Текущее время: 08-Дек 01:18

Часовой пояс: UTC + 3


Вы не можете начинать темы
Вы не можете отвечать на сообщения
Вы не можете редактировать свои сообщения
Вы не можете удалять свои сообщения
Вы не можете голосовать в опросах
Вы не можете прикреплять файлы к сообщениям
Вы не можете скачивать файлы