Мистер-Твистер (Сергей Образцов, Владимир Кусов, Борис Аблынин) [1977, Кукольный, фильм-спектакль, WebRip] Государственный академический центральный театр кукол им. С.В. Образцова


 

[Цитировать]

Мистер-Твистер
Название театра: Государственный академический центральный театр кукол им. С.В. Образцова
Жанр: Кукольный, фильм-спектакль
Год выпуска: 1977
Продолжительность: 0:26:36
Режиссёр: Сергей Образцов, Владимир Кусов, Борис Аблынин
В ролях: Сергей Образцов, Григорий Толчинский, Владимир Кусов, Галина Бадич, Наталья Меркулова, Наталья Самошина, Константин Гуркин, Борис Каушанский
Описание: Постановка по одноименному стихотворению С.Маршака.
Доп. информация:
В видео данной раздачи более насыщенные цвета, чем в видео существующей раздачи, отсутствует реклама автора релиза в начале видеофайла, а также отсутствует заретушированный логотип телеканала в правом верхнем углу.
Сравнение скриншотов: http://screenshotcomparison.com/comparison/144017/picture:0.
Качество видео: WebRip
Формат видео: AVI
Видео: DivX 5, 720x544, 4:3, 25 кадров в секунду, 1498 кбит/с
Аудио: MP3, 32 kHz, 128 кбит/с, стерео

MediaInfo

Video
ID : 0
Format : MPEG-4 Visual
Format profile : Simple@L1
Format settings, BVOP : No
Format settings, QPel : No
Format settings, GMC : No warppoints
Format settings, Matrix : Default (H.263)
Codec ID : DX50
Codec ID/Hint : DivX 5
Duration : 26mn 36s
Bit rate : 1 498 Kbps
Width : 720 pixels
Height : 544 pixels
Display aspect ratio : 4:3
Original display aspect ratio : 4:3
Frame rate : 25.000 fps
Color space : YUV
Chroma subsampling : 4:2:0
Bit depth : 8 bits
Scan type : Progressive
Compression mode : Lossy
Bits/(Pixel*Frame) : 0.153
Stream size : 285 MiB (92%)
Writing library : DigiArty AV Encoder Core
Audio
ID : 1
Format : MPEG Audio
Format version : Version 1
Format profile : Layer 3
Codec ID : 55
Codec ID/Hint : MP3
Duration : 26mn 36s
Bit rate mode : Constant
Bit rate : 128 Kbps
Channel(s) : 2 channels
Sampling rate : 32.0 KHz
Compression mode : Lossy
Stream size : 24.4 MiB (8%)
Alignment : Aligned on interleaves
Interleave, duration : 36 ms (0.90 video frame)
Interleave, preload duration : 504 ms
Writing library : LAME3.98.4

Скриншот с названием постановки

Скриншоты




Показать сообщения:    

Текущее время: 08-Дек 03:11

Часовой пояс: UTC + 3


Вы не можете начинать темы
Вы не можете отвечать на сообщения
Вы не можете редактировать свои сообщения
Вы не можете удалять свои сообщения
Вы не можете голосовать в опросах
Вы не можете прикреплять файлы к сообщениям
Вы не можете скачивать файлы