Дальше - тишина (Анатолий Эфрос) [1978, СССР, драма, DVDRip] Моссовет


 

[Цитировать]

Дальше - тишина
Название театра: Моссовет
Страна: СССР
Жанр: драма
Год выпуска: 1978
Продолжительность: 02:29:55
Перевод: Не требуется

Режиссёр: Анатолий Эфрос
В ролях: Ростислав Плятт, Фаина Раневская, Михаил Львов, Ирина Соколова, Ирина Карташёва, Борис Иванов, Ирина Муравьёва, Леонид Евтифьев, Айнель-Хаяб Молчадская, Николай Афонин
Описание: Действие спектакля происходит в Америке, в семье Куперов. Придя на обед к родителям, дети узнают неприятную новость - родители вынуждены расстаться с домом из-за задолженности банку. Скидываться на оплату жилья для родителей дети не желают, и начинаются разборки - куда девать мать и отца. Старики становятся в тягость своим детям. Паре, прожившей 50 лет вместе, приходится расстаться навсегда.
Отца забирает дочка из Калифорнии, у которой не находится места для матери... "Ни под лестницей, ни в чулане" - как со слезами на глазах, с настоящими слезами и дрожью в голосе умоляет Фаина Раневская - нигде. Голос актрисы срывается, губы трясутся, Люси Купер беспомощно смотрит на сына, который сообщил ей страшное известие. Ее же саму отправляют в приют для престарелых женщин, и единственное, что ее заботит - чтобы отец не узнал об этом. Она берет с сына обещание не рассказывать отцу, где она будет находиться - "Это будет первая в моей жизни тайна от твоего отца".
Финальная сцена спектакля - прощание супругов на вокзале перед отходом поезда в Калифорнию. Последнее объятие, наставления Люси, слезы Барклея Купера. И голос за кадром: "А дальше-тишина..."
Телеверсия моссоветовского спектакля 1978 года по пьесе В. Дельмара "Уступи место завтрашнему дню", поставленного режиссером Анатолием Эфросом и рассказывающего о трудных отношениях престарелых родителей и их взрослых детей.

Качество видео: DVDRip
Формат видео: AVI
Видео: 640x480 (1.33:1), 25 fps, XviD build 73 ~1830 kbps avg, 0.24 bit/pixel
Аудио: 48 kHz, AC3 Dolby Digital, 2/0 (L,R) ch, ~224 kbps

MediaInfo

Общее
Полное имя : H:\Дальше.тишина.1978.dvdrip_[2.18]_[teko].avi
Формат : AVI
Формат/Информация : Audio Video Interleave
Профиль формата : OpenDML
Размер файла : 2,16 Гбайт
Продолжительность : 2 ч. 29 м.
Общий поток : 2061 Кбит/сек
Программа кодирования : VirtualDubMod 1.5.10.3 | www.virtualdub-fr.org || (build 2550/release)
Библиотека кодирования : VirtualDubMod build 2550/release
Видео
Идентификатор : 0
Формат : MPEG-4 Visual
Профиль формата : Advanced Simple@L5
Параметр BVOP формата : 1
Параметр QPel формата : Нет
Параметр GMC формата : Без точки перехода
Параметр матрицы формата : Выборочная
Идентификатор кодека : XVID
Идентификатор кодека/Подсказка : XviD
Продолжительность : 2 ч. 29 м.
Битрейт : 1825 Кбит/сек
Ширина : 640 пикселей
Высота : 480 пикселей
Соотношение сторон : 4:3
Частота кадров : 25,000 кадров/сек
Цветовое пространство : YUV
Субдискретизация насыщенности : 4:2:0
Битовая глубина : 8 бит
Тип развёртки : Прогрессивная
Метод сжатия : С потерями
Бит/(Пиксели*Кадры) : 0.238
Размер потока : 1,91 Гбайт (89%)
Библиотека кодирования : XviD 73
Аудио
Идентификатор : 1
Формат : AC-3
Формат/Информация : Audio Coding 3
Расширение режима : CM (complete main)
Параметр Endianness формата : Big
Идентификатор кодека : 2000
Продолжительность : 2 ч. 29 м.
Вид битрейта : Постоянный
Битрейт : 224 Кбит/сек
Каналы : 2 канала
Расположение каналов : Front: L R
Частота : 48,0 КГц
Битовая глубина : 16 бит
Метод сжатия : С потерями
Размер потока : 240 Мбайт (11%)
Выравнивание : Разделение по промежуткам
Продолжительность промежутка : 40 мс. (1,00 видеокадр)
Время предзагрузки промежутка : 500 мс.
Релиз группы:
--



Показать сообщения:    

Текущее время: 21-Янв 11:37

Часовой пояс: UTC + 3


Вы не можете начинать темы
Вы не можете отвечать на сообщения
Вы не можете редактировать свои сообщения
Вы не можете удалять свои сообщения
Вы не можете голосовать в опросах
Вы не можете прикреплять файлы к сообщениям
Вы не можете скачивать файлы