Обещание счастья (Лев Цуцульковский) [1974, мелодрама, телеспектакль, WEB-DLRip]


 

[Цитировать]

Обещание счастья Год выпуска: 1974.
Жанр: мелодрама, телеспектакль.
Продолжительность: 01:06:42.
Режиссер: Лев Цуцульковский.
В ролях:
1. "Ночь в октябре" - Людмила Чурсина, Юрий Яковлев, Николай Бутрехин.
2. "Дождливый рассвет" - Людмила Чурсина, Олег Ефремов.
3. "Белая радуга" - Людмила Чурсина, Пётр Вельяминов.
О спектакле:
По рассказам Константина Георгиевича Паустовского.
Дополнительная информация:
Страна: СССР .
Выпущено: Ленинградское телевидение.
Автор: Константин Паустовский.
Экранизация и постановка: Лев Цуцульковский.
Художник: К. Дмитраков.
Оператор: В. Пономарёв.
В фильме звучит "Avе Maria" (Бах - Гуно).
Релиз
Рип lesik689.

Качество видео:...WEB-DLRip
Формат:.................AVI
Видео:..704x528 (1.33:1), 25 fps, XviD build 73 ~1678 kbps avg, 0.18 bit/pixel
Аудио:..48 kHz, MPEG Layer 3, 2 ch, ~128.00 kbps avg

Отчет Media Info

General
Complete name : Obewanie.schast'ya.1974.XviD.WEB-DLRip.fenixclub.avi
Format : AVI
Format/Info : Audio Video Interleave
File size : 866 MiB
Duration : 1h 6mn
Overall bit rate : 1 816 Kbps
Video
ID : 0
Format : MPEG-4 Visual
Format profile : Advanced Simple@L5
Format settings, BVOP : 2
Format settings, QPel : No
Format settings, GMC : No warppoints
Format settings, Matrix : Default (MPEG)
Codec ID : XVID
Codec ID/Hint : XviD
Duration : 1h 6mn
Bit rate : 1 678 Kbps
Width : 704 pixels
Height : 528 pixels
Display aspect ratio : 4:3
Frame rate : 25.000 fps
Color space : YUV
Chroma subsampling : 4:2:0
Bit depth : 8 bits
Scan type : Progressive
Compression mode : Lossy
Bits/(Pixel*Frame) : 0.181
Stream size : 801 MiB (92%)
Writing library : XviD 73
Audio
ID : 1
Format : MPEG Audio
Format version : Version 1
Format profile : Layer 3
Mode : Joint stereo
Codec ID : 55
Codec ID/Hint : MP3
Duration : 1h 6mn
Bit rate mode : Constant
Bit rate : 128 Kbps
Channel(s) : 2 channels
Sampling rate : 48.0 KHz
Compression mode : Lossy
Stream size : 61.1 MiB (7%)
Alignment : Split accross interleaves
Interleave, duration : 40 ms (1.00 video frame)
Interleave, preload duratio : 500 ms.

Скриншоты


Альтернативный хост





Показать сообщения:    

Текущее время: 03-Дек 16:45

Часовой пояс: UTC + 3


Вы не можете начинать темы
Вы не можете отвечать на сообщения
Вы не можете редактировать свои сообщения
Вы не можете удалять свои сообщения
Вы не можете голосовать в опросах
Вы не можете прикреплять файлы к сообщениям
Вы не можете скачивать файлы