Принц Наполеон (Александр Белинский) [1969, памфлет, телеспектакль, WEB-DLRip]


 

[Цитировать]

Принц Наполеон Год выпуска: 1969.
Жанр: памфлет, телеспектакль.
Продолжительность: 01:08:21.
Режиссер: Александр Белинский.
Действующие лица и исполнители:
Луи Наполеон - Сергей Юрский,
Де Персиньи - Игорь Дмитриев,
Морни - Владислав Стржельчик,
Граф Монтолон - Николай Карамышев,
Графиня Монтолон - Валентина Ковель,
Элеонора Гордон - Эмма Попова,
Жюли - Наталья Тенякова,
Шарль Телен - Николай Боярский,
Сент-Арно - И. Постников,
Маньян - Павел Панков,
Де Мопа - Георгий Тейх,
Флери - Леонард Секирин,
Гадалка - Валентина Чемберг,
Пианист - В. Шалнт.
О спектакле:
По сатирической пьесе Василия Шкваркина.
"Все великие исторические события и личности появляются дважды: первый раз - как трагедия, второй раз - как фарс". (Гегель)
Пьеса Василия Шкваркина "Принц Наполеон" (1941) - история неожиданного возвышения, падения и достижения власти авантюристом Луи Наполеоном. Кукла в руках политиканов и плутократов, ловкий спекулянт Луи Наполеон, пользуясь политической ситуацией, воцаряется на престоле Франции.

Дополнительная информация:
Страна: СССР .
Выпущено: Ленинградское телевидение.
Автор: Василий Шкваркин.
Художник: Валентин Попов.
Художник по костюмам: Тамара Алексеева.
Ведущий оператор: Борис Никаноров.
Релиз
Рип lesik689.
Большое спасибо художнику Арт-студии кинозала irinadyach за прекрасный постер.


Качество видео:...WEB-DLRip
Формат:.................AVI
Видео:..640x480 (1.33:1), 25 fps, XviD build 64 ~1902 kbps avg, 0.25 bit/pixel
Аудио:..44.100 kHz, MPEG Layer 3, 2 ch, ~128.00 kbps avg

Отчет Media Info

General
Complete name : Prints.Napoleon.1969.XviD.WEB-DLRip.fenixclub.avi
Format : AVI
Format/Info : Audio Video Interleave
File size : 997 MiB
Duration : 1h 8mn
Overall bit rate : 2 040 Kbps
Video
ID : 0
Format : MPEG-4 Visual
Format profile : Advanced Simple@L5
Format settings, BVOP : 1
Format settings, QPel : No
Format settings, GMC : No warppoints
Format settings, Matrix : Default (MPEG)
Codec ID : XVID
Codec ID/Hint : XviD
Duration : 1h 8mn
Bit rate : 1 902 Kbps
Width : 640 pixels
Height : 480 pixels
Display aspect ratio : 4:3
Frame rate : 25.000 fps
Color space : YUV
Chroma subsampling : 4:2:0
Bit depth : 8 bits
Scan type : Progressive
Compression mode : Lossy
Bits/(Pixel*Frame) : 0.248
Stream size : 930 MiB (93%)
Writing library : XviD 64
Audio
ID : 1
Format : MPEG Audio
Format version : Version 1
Format profile : Layer 3
Mode : Joint stereo
Mode extension : MS Stereo
Codec ID : 55
Codec ID/Hint : MP3
Duration : 1h 8mn
Bit rate mode : Constant
Bit rate : 128 Kbps
Channel(s) : 2 channels
Sampling rate : 44.1 KHz
Compression mode : Lossy
Stream size : 62.4 MiB (6%)
Alignment : Split accross interleaves
Interleave, duration : 40 ms (0.99 video frame)
Interleave, preload duratio : 501 ms.

Скриншоты


Альтернативный хост





Показать сообщения:    

Текущее время: 10-Дек 19:36

Часовой пояс: UTC + 3


Вы не можете начинать темы
Вы не можете отвечать на сообщения
Вы не можете редактировать свои сообщения
Вы не можете удалять свои сообщения
Вы не можете голосовать в опросах
Вы не можете прикреплять файлы к сообщениям
Вы не можете скачивать файлы