В добрый час! (Глеб Селянин) [1973, мелодрама, экранизация, телеспектакль, TVRip]


 

[Цитировать]

В добрый час! Год выпуска: 1973.
Жанр: мелодрама, экранизация, телеспектакль.
Продолжительность: 01:32:57.
Режиссер: Глеб Селянин.
Действующие лица и исполнители:
Петр Иванович Аверин - Иосиф Конопацкий,
Анастасия Ефремовна - Людмила Макарова,
Аркадий - Анатолий Пузырев,
Андрей - Александр Ягодин,
Алексей - Александр Сослюк,
Галя Давыдова - Галина Никулина,
Вадим Розвалов - Федор Васильев,
Катя Сорокина - Ольга Селянина,
Афанасий Кабанов - Михаил Мокиенко,
Маша Полякова - Галина Романовская.
О спектакле:
Период советской "оттепели" - самое оптимистическое время двадцатого столетия.
Время надежд, время мощных созиданий, давно ставшее историей.
Именно эта эпоха предстает в пьесе классика советской драматургии Виктора Розова.
В центре спектакля - судьбы двоюродных братьев Андрея и Алексея, только что закончивших школу.
Перед ними и их друзьями встают вопросы: кем быть? Как выбрать правильную дорогу в жизни...

Дополнительная информация:
Страна: СССР .
Выпущено: Ленинградское телевидение.
Автор: Виктор Розов.
Художник: Михаил Шаров.
Ведущий оператор: Юрий Соколов.
Релиз

Качество видео:...TVRip
Формат:.................AVI
Видео:..640x480 (1.33:1), 25 fps, XviD MPEG-4 ~1960 kbps avg, 0.26 bit/pixel
Аудио:..44.100 kHz, MPEG Layer 3, 2 ch, ~128.00 kbps avg

Отчет Media Info

General
Complete name : V.dobryj.chas.1973.XviD.TVRip.fenixclub.avi
Format : AVI
Format/Info : Audio Video Interleave
File size : 1.36 GiB
Duration : 1h 32mn
Overall bit rate : 2 098 Kbps
Writing application : VirtualDubModRus 1.5.10.2 (build 2542/release)
Writing library : VirtualDub build 32842/release
Video
ID : 0
Format : MPEG-4 Visual
Format profile : Advanced Simple@L5
Format settings, BVOP : 2
Format settings, QPel : No
Format settings, GMC : No warppoints
Format settings, Matrix : Default (MPEG)
Codec ID : XVID
Codec ID/Hint : XviD
Duration : 1h 32mn
Bit rate : 1 960 Kbps
Width : 640 pixels
Height : 480 pixels
Display aspect ratio : 4:3
Frame rate : 25.000 fps
Color space : YUV
Chroma subsampling : 4:2:0
Bit depth : 8 bits
Scan type : Progressive
Compression mode : Lossy
Bits/(Pixel*Frame) : 0.255
Stream size : 1.27 GiB (93%)
Writing library : XviD 73
Audio
ID : 1
Format : MPEG Audio
Format version : Version 1
Format profile : Layer 3
Mode : Joint stereo
Mode extension : MS Stereo
Codec ID : 55
Codec ID/Hint : MP3
Duration : 1h 32mn
Bit rate mode : Constant
Bit rate : 128 Kbps
Channel(s) : 2 channels
Sampling rate : 44.1 KHz
Compression mode : Lossy
Stream size : 85.1 MiB (6%)
Alignment : Split accross interleaves
Interleave, duration : 40 ms (1.00 video frame)
Interleave, preload duratio : 500 ms
Writing library : LAME3.98.2

Скриншоты

Альтернативный хост




Показать сообщения:    

Текущее время: 08-Дек 09:04

Часовой пояс: UTC + 3


Вы не можете начинать темы
Вы не можете отвечать на сообщения
Вы не можете редактировать свои сообщения
Вы не можете удалять свои сообщения
Вы не можете голосовать в опросах
Вы не можете прикреплять файлы к сообщениям
Вы не можете скачивать файлы