А что у нас в театре? / Новоселье (Владимир Попрыкин, Владимир Штейн, Леонид Хаит, Галина Холопова) [1974, Комедия, кукольный, фильм-спектакль, WebRip] Государственный академический центральный театр кукол им. С.В. Образцова


 

[Цитировать]

А что у нас в театре? (Новоселье)
Название театра: Государственный академический центральный театр кукол им. С.В. Образцова
Жанр: Комедия, кукольный, фильм-спектакль
Год выпуска: 1974
Продолжительность: 1:23:25
Режиссёры: Владимир Попрыкин, Владимир Штейн, Леонид Хаит, Галина Холопова
В ролях: Сергей Образцов, Семён Самодур, в представлении участвуют все актёры театра.
Описание: Переехав в 1970 году в новое здание на Садово-Самотечной улице, Театр кукол под руководством актера и режиссера народного артиста СССР Сергея Образцова представил публике музыкальное гала-представление в двух частях «А что у нас в театре?» (второе название спектакля – «Новоселье»). Это был рассказ-воспоминание об истории коллектива с момента его основания в 1931 году по инициативе Дома художественного воспитания, своеобразный бенефис.
В самом спектакле, как и во всяком бенефисе, демонстрируются отрывки из спектаклей разных лет. Ведущий вечера – сам Сергей Владимирович Образцов. Его конферанс предваряет и завершает каждый номер концерта. Основатель и бессменный руководитель коллектива рассказывает о том, какую роль играл тот или иной спектакль в жизни театра и труппы, о том, как из кукольного, а значит, традиционно воспринимаемого как детский он постепенно превращался во вполне «взрослый».
Первая часть посвящена детям, вторая – взрослым.
Качество видео: WebRip
Формат видео: AVI
Видео: DivX 5, 720x540, 4:3, 25 кадров в секунду, 1500 кбит/с
Аудио: MP3, 32 kHz, 128 кбит/с, стерео

MediaInfo

Video
ID : 0
Format : MPEG-4 Visual
Format profile : Simple@L1
Format settings, BVOP : No
Format settings, QPel : No
Format settings, GMC : No warppoints
Format settings, Matrix : Default (H.263)
Codec ID : DX50
Codec ID/Hint : DivX 5
Duration : 1h 23mn
Bit rate : 1 500 Kbps
Width : 720 pixels
Height : 540 pixels
Display aspect ratio : 4:3
Frame rate : 25.000 fps
Color space : YUV
Chroma subsampling : 4:2:0
Bit depth : 8 bits
Scan type : Progressive
Compression mode : Lossy
Bits/(Pixel*Frame) : 0.154
Stream size : 895 MiB (92%)
Writing library : DigiArty AV Encoder Core
Audio
ID : 1
Format : MPEG Audio
Format version : Version 1
Format profile : Layer 3
Codec ID : 55
Codec ID/Hint : MP3
Duration : 1h 23mn
Bit rate mode : Constant
Bit rate : 128 Kbps
Channel(s) : 2 channels
Sampling rate : 32.0 KHz
Compression mode : Lossy
Stream size : 76.4 MiB (8%)
Alignment : Aligned on interleaves
Interleave, duration : 36 ms (0.90 video frame)
Interleave, preload duration : 504 ms
Writing library : LAME3.98.4

Скриншот с названием постановки

Скриншоты




Показать сообщения:    

Текущее время: 11-Дек 13:02

Часовой пояс: UTC + 3


Вы не можете начинать темы
Вы не можете отвечать на сообщения
Вы не можете редактировать свои сообщения
Вы не можете удалять свои сообщения
Вы не можете голосовать в опросах
Вы не можете прикреплять файлы к сообщениям
Вы не можете скачивать файлы