Натали (Владимир Латышев) [1988 г., мелодрама, телеспектакль, WEB-DLRip]


 

[Цитировать]

Натали Год выпуска: 1988.
Жанр: мелодрама, телеспектакль.
Продолжительность: 01:27:41.
Режиссер: Владимир Латышев.
Действующие лица и исполнители:
Текст читает Роман Федотов,
Натали - Милена Тонтегоде (озвучивает Людмила Селезнёва),
Соня - Мария Воронина,
Виталий - Валерий Соловьев,
Улан - Николай Федорцов,
Нянька - Нина Казаринова,
Яков - Сергей Мучеников,
Девушка на балу - Мария Тхоржевская,
Христя - Алевтина Мартикайнен,
Гаша - Юлия Бочанова.
В эпизодах - артисты ленинградских театров.
О спектакле:
По одноименному рассказу Ивана Алексеевича Бунина (из сборника "Тёмные аллеи", часть II).
Молодой человек Виталий Мещерский, недавно поступивший в университет, приезжает на каникулы домой. Делая визиты соседям, как-то раз он попадает в дом своего дяди, где встречает кузину Соню, которая ему нравилась в детстве. Виталий начинает роман с Соней, которая тоже не прочь завести интрижку со своим красивым кузеном. Соня полушутя предупреждает Виталия, что завтра он увидит гостящую у неё подругу по гимназии Натали Станкевич и влюбится в неё без памяти...

Дополнительная информация:
Страна: СССР .
Выпущено: Ленинградское телевидение.
Автор: Иван Алексеевич Бунин.
Автор сценария: Аркадий Кленов.
Художники: Андрей Пилипцов, Нина Голубева.
Композитор: Владислав Успенский.
Оператор-постановщик: Борис Волох.
Релиз
Рип lesik689.

Качество видео:...WEB-DLRip
Формат:.................AVI
Видео:..640x480 (1.33:1), 25 fps, XviD build 64 ~1799 kbps avg, 0.23 bit/pixel
Аудио:..44.100 kHz, MPEG Layer 3, 2 ch, ~128.00 kbps avg

Отчет Media Info

General
Complete name : Natali.1988.XviD.WEB-DLRip.fenixclub.avi
Format : AVI
Format/Info : Audio Video Interleave
File size : 1.19 GiB
Duration : 1h 27mn
Overall bit rate : 1 937 Kbps
Writing application : VirtualDubMod 1.5.10.2 (build 2542/release)
Writing library : VirtualDubMod build 2542/release
Video
ID : 0
Format : MPEG-4 Visual
Format profile : Advanced Simple@L5
Format settings, BVOP : 2
Format settings, QPel : No
Format settings, GMC : No warppoints
Format settings, Matrix : Default (MPEG)
Codec ID : XVID
Codec ID/Hint : XviD
Duration : 1h 27mn
Bit rate : 1 800 Kbps
Width : 640 pixels
Height : 480 pixels
Display aspect ratio : 5:4
Original display aspect rat : 4:3
Frame rate : 25.000 fps
Color space : YUV
Chroma subsampling : 4:2:0
Bit depth : 8 bits
Scan type : Progressive
Compression mode : Lossy
Bits/(Pixel*Frame) : 0.234
Stream size : 1.10 GiB (93%)
Writing library : XviD 64
Audio
ID : 1
Format : MPEG Audio
Format version : Version 1
Format profile : Layer 3
Mode : Joint stereo
Mode extension : MS Stereo
Codec ID : 55
Codec ID/Hint : MP3
Duration : 1h 27mn
Bit rate mode : Constant
Bit rate : 128 Kbps
Channel(s) : 2 channels
Sampling rate : 44.1 KHz
Compression mode : Lossy
Delay relative to video : 100ms
Stream size : 80.1 MiB (7%)
Alignment : Split accross interleaves
Interleave, duration : 40 ms (1.00 video frame)
Interleave, preload duratio : 500 ms.

Скриншоты


Альтернативный хост





Показать сообщения:    

Текущее время: 05-Дек 21:40

Часовой пояс: UTC + 3


Вы не можете начинать темы
Вы не можете отвечать на сообщения
Вы не можете редактировать свои сообщения
Вы не можете удалять свои сообщения
Вы не можете голосовать в опросах
Вы не можете прикреплять файлы к сообщениям
Вы не можете скачивать файлы