Как папа был маленьким (Александр Раскин) [1979 г., комедия, детский, музыкальный, телеспектакль, TVRip]


 

[Цитировать]

Как папа был маленьким Год выпуска: 1979.
Жанр: комедия, детский, музыкальный, телеспектакль.
Продолжительность: 00:37:51.
Режиссер: Глеб Селянин.
В ролях: Анатолий Равикович, Сергей Заморев.
О спектакле:
Телеспектакль по мотивам рассказов Александра Раскина "Как папа был маленьким".
Веселые поучительные истории, в которых папа хвастается, обижается, трусит, кусает профессора, прячется под кровать от учительницы музыки, укрощает собачку, охотится на тигра, опаздывает в школу, придумывает всякие небылицы для учителей, обижается на смешные прозвища, которые ему придумывают, папу шлёпают, воспитывают, поучают, - и все эти забавные истории показывают, как важно никогда не унывать! И еще, все эти истории - чистая правда! Как здорово, что папы не рождаются сразу взрослыми и что они, пока маленькие, так похожи на своих детей!

Дополнительная информация:
Страна: СССР .
Выпущено: Ленинградское телевидение.
Автор: Александр Раскин.
Автор сценария: Аркадий Кленов.
Художники: Ольга и Георгий Воронецкие.
Сценическое движение: Кирилл Ласкари.
Композиторы: Игорь Цветков, Вадим Шеповалов.
Текст песен: Михаил Либин.
Ведущий оператор: Борис Никаноров.
Релиз

Качество видео:...TVRip
Формат:.................AVI
Видео:..640x480 (1.33:1), 25 fps, XviD MPEG-4 ~1396 kbps avg, 0.18 bit/pixel
Аудио:..44.100 kHz, MPEG Layer 3, 2 ch, ~128.00 kbps avg

Отчет Media Info

General
Complete name : Kak.papa.byl.malenkim.1979.XviD.TVRip.fenixclub.avi
Format : AVI
Format/Info : Audio Video Interleave
File size : 415 MiB
Duration : 37mn 51s
Overall bit rate : 1 534 Kbps
Writing application : VirtualDubModRus 1.5.10.2 (build 2542/release)
Writing library : VirtualDub build 32842/release
Video
ID : 0
Format : MPEG-4 Visual
Format profile : Advanced Simple@L5
Format settings, BVOP : 2
Format settings, QPel : No
Format settings, GMC : No warppoints
Format settings, Matrix : Default (MPEG)
Codec ID : XVID
Codec ID/Hint : XviD
Duration : 37mn 51s
Bit rate : 1 397 Kbps
Width : 640 pixels
Height : 480 pixels
Display aspect ratio : 4:3
Frame rate : 25.000 fps
Color space : YUV
Chroma subsampling : 4:2:0
Bit depth : 8 bits
Scan type : Progressive
Compression mode : Lossy
Bits/(Pixel*Frame) : 0.182
Stream size : 378 MiB (91%)
Writing library : XviD 73
Audio
ID : 1
Format : MPEG Audio
Format version : Version 1
Format profile : Layer 3
Mode : Joint stereo
Mode extension : MS Stereo
Codec ID : 55
Codec ID/Hint : MP3
Duration : 37mn 51s
Bit rate mode : Constant
Bit rate : 128 Kbps
Channel(s) : 2 channels
Sampling rate : 44.1 KHz
Compression mode : Lossy
Stream size : 34.7 MiB (8%)
Alignment : Split accross interleaves
Interleave, duration : 40 ms (1.00 video frame)
Interleave, preload duratio : 500 ms
Writing library : LAME3.98.2

Скриншоты

Альтернативный хост




Показать сообщения:    

Текущее время: 24-Янв 12:14

Часовой пояс: UTC + 3


Вы не можете начинать темы
Вы не можете отвечать на сообщения
Вы не можете редактировать свои сообщения
Вы не можете удалять свои сообщения
Вы не можете голосовать в опросах
Вы не можете прикреплять файлы к сообщениям
Вы не можете скачивать файлы