Темные аллеи (Александр Белинский) [1968, мелодрама, телеспектакль, TVRip]


 

[Цитировать]

Темные аллеи Год выпуска: 1968.
Жанр: мелодрама, телеспектакль.
Продолжительность: 00:42:16.
Режиссер: Александр Белинский.
В ролях:
1. "Темные аллеи" - Николай Симонов, Ольга Лебзак, Константин Адашевский.
2. "Мадрид" - Алиса Фрейндлих, Леонард Борисевич.
3. "В Париже" - Игорь Озеров, Евгения Уралова.
О спектакле:
По рассказам Ивана Алексеевича Бунина из сборника "Темные аллеи".
Дополнительная информация:
Страна: СССР .
Выпущено: Ленинградское телевидение.
Автор: Иван Бунин.
Автор сценария: Александр Белинский.
Художник: И. Поляков.
Ведущий оператор: Борис Никаноров.
Релиз

Качество видео:...TVRip
Формат:.................AVI
Видео:..640x480 (1.33:1), 25 fps, XviD MPEG-4 ~1535 kbps avg, 0.20 bit/pixel
Аудио:..44.100 kHz, MPEG Layer 3, 2 ch, ~128.00 kbps avg

Отчет Media Info

General
Complete name : Temnye.allei.1968.XviD.TVRip.fenixclub.avi
Format : AVI
Format/Info : Audio Video Interleave
File size : 506 MiB
Duration : 42mn 16s
Overall bit rate : 1 674 Kbps
Writing application : VirtualDubModRus 1.5.10.2 (build 2542/release)
Writing library : VirtualDub build 32842/release
Video
ID : 0
Format : MPEG-4 Visual
Format profile : Advanced Simple@L5
Format settings, BVOP : 2
Format settings, QPel : No
Format settings, GMC : No warppoints
Format settings, Matrix : Default (MPEG)
Codec ID : XVID
Codec ID/Hint : XviD
Duration : 42mn 16s
Bit rate : 1 536 Kbps
Width : 640 pixels
Height : 480 pixels
Display aspect ratio : 4:3
Frame rate : 25.000 fps
Color space : YUV
Chroma subsampling : 4:2:0
Bit depth : 8 bits
Scan type : Progressive
Compression mode : Lossy
Bits/(Pixel*Frame) : 0.200
Stream size : 464 MiB (92%)
Writing library : XviD 73
Audio
ID : 1
Format : MPEG Audio
Format version : Version 1
Format profile : Layer 3
Mode : Joint stereo
Mode extension : MS Stereo
Codec ID : 55
Codec ID/Hint : MP3
Duration : 42mn 15s
Bit rate mode : Constant
Bit rate : 128 Kbps
Channel(s) : 2 channels
Sampling rate : 44.1 KHz
Compression mode : Lossy
Stream size : 38.7 MiB (8%)
Alignment : Split accross interleaves
Interleave, duration : 40 ms (1.00 video frame)
Interleave, preload duratio : 500 ms
Writing library : LAME3.98.2

Скриншоты

Альтернативный хост




Показать сообщения:    

Текущее время: 05-Дек 05:31

Часовой пояс: UTC + 3


Вы не можете начинать темы
Вы не можете отвечать на сообщения
Вы не можете редактировать свои сообщения
Вы не можете удалять свои сообщения
Вы не можете голосовать в опросах
Вы не можете прикреплять файлы к сообщениям
Вы не можете скачивать файлы