Дон Кихот (Семен Спивак) [2011 г., драма, SATRip] Санкт-Петербургский государственный молодежный театр на Фонтанке


 

[Цитировать]

Дон Кихот Название театра: Санкт-Петербургский государственный молодежный театр на Фонтанке.
Год выпуска: 2011.
Жанр: драма.
Продолжительность: 01:26:11 + 00:54:01 + 00:59:53 (03:20:05).
Режиссеры: народный артист России Семен Спивак.
Действующие лица и исполнители:
Дон Кихот - Андрей Шимко,
Антония, его племянница - Надежда Рязанцева,
Ключница Дон Кихота - заслуженная артистка России Татьяна Григорьева,
Санчо Панса - Роман Нечаев,
Педро Пепес, священник - Евгений Клубов,
Николас, цирюльник - Алексей Одинг,
Альдонса Лоренсо, крестьянка - Дульсинея Тобосская - Наталья Паллин,
Сансон Караско, бакалавр - Андрей Кузнецов,
Паломек Левша, хозяин постоялого двора - заслуженный артист России Леонид Осокин,
Мариторнес, служанка - Марина Ордина,
Погонщик мулов - Владимир Маслаков,
Тенорио Эрнандес, постоялец; Мажордом Герцога - Александр Андреев,
Педро Мартинес, постоялец; Паж Герцога - Василий Гузов,
Слуга Мартинеса - заслуженный артист России Сегрей Гавлич,
Работник на постоялом дворе - Александр Рыбаков,
Герцог - Петр Журавлев,
Герцогиня - Александра Бражникова,
Духовник Герцога - Станислав Мухин,
Дуэнья Родригес - Светлана Строгова,
Свиновод - Александр Куликов,
Женщина - заслуженная артистка России Екатерина Дронова.
В спектакле также заняты:
Аршад Алекперов, Ирина Гершт, Илья Демидов, Константин Дунаевский, Егор Кутенков, Сергей Малахов, Надежда Некрасова, Юрий Сташин, Наталья Третьякова, Сергей Яценюк, Алиса Варова, Наталья Мызникова, Анастасия Тюнина.
О спектакле:
"Дон Кихот" - один из самых ярких спектаклей Молодежного театра на Фонтанке. Его поставил Художественный руководитель Театра, народный артист России Семен Спивак по одноименной пьесе Михаила Булгакова. Вариация на тему романа Мигеля де Сервантеса была написана Булгаковым в 1938 году для Театра имени Вахтангова. Пьесу долго не пропускала цензура и она была поставлена только после смерти автора, имела сложную сценическую судьбу и сегодня практически не востребована театром. Главный герой булгаковской постановки – странствующий рыцарь, неординарная личность, не встречающая понимания и сочувствия на своем пути. Его странствия принимают за бродяжничество, отвагу - за безрассудство, бескорыстие - за безумство. Тема одиночества и тоски по утраченным идеалам – одна из главных тем в творчестве Семена Спивака.
Андрей Шимко создает романтический образ странного чудака Дона Кихано, уходящего от убогой серости и обыденности повседневной жизни в мир, созданный им самим, где все раскрашено в яркие цвета, где есть место чудесам, колдовским чарам и великанам.

Дополнительная информация:
Страна: Россия .
Выпущено: © Телеканал "Театр".
Автор: Михаил Булгаков.
Режиссер-постановщик спектакля: народный артист России Семен Спивак.
Художник-постановщик: Семен Пастух.
Художники по свету: Гидал Шугаев, Рада Ташкинова.
Балетмейстер: заслуженный деятель искусств России Сергей Грицай.
Музыкальное оформление: заслуженный работник культуры России Иван Благодёр, Владимир Бычковский.
Постановка боёв: Игорь Качаев.
Премьера спектакля состоялась 4 июня 2008 года.
Награды, премии, участие в фестивалях:
• 2009. Спектакль удостоен Диплома губернатора Санкт-Петербурга.
• 2009. Спектакль — лауреат Международного фестиваля классики в Альмагро (Испания).

О спектакле.
Релиз
Большое спасибо ItarTass за предоставленый материал!!!

Качество видео:...SATRip
Формат:.................AVI
Видео:..720x544 (1.32:1), 25 fps, XviD build 64 ~1796 kbps avg, 0.18 bit/pixel
Аудио:..48 kHz, MPEG Layer 3, 2 ch, ~192.00 kbps avg

Отчет Media Info

1-е действие
Общее
Полное имя : Don.Kihot_Sankt.Peterburgskij.molodyozhnyj.teatr.na.Fontanke.(3.dejstviya.iz.3).2011.XviD.SATRip.fenixclub\Don.Kihot_Sankt.Peterburgskij.molodyozhnyj.teatr.na.Fontanke.2011_1-e.dejstvie.avi
Format : AVI
Format/Info : Audio Video Interleave
File size : 1.20 GiB
Duration : 1h 26mn
Overall bit rate : 1 999 Kbps
Video
ID : 0
Format : MPEG-4 Visual
Format profile : Advanced Simple@L5
Format settings, BVOP : 2
Format settings, QPel : No
Format settings, GMC : No warppoints
Format settings, Matrix : Default (H.263)
Codec ID : XVID
Codec ID/Hint : XviD
Duration : 1h 26mn
Bit rate : 1 797 Kbps
Width : 720 pixels
Height : 544 pixels
Display aspect ratio : 4:3
Frame rate : 25.000 fps
Color space : YUV
Chroma subsampling : 4:2:0
Bit depth : 8 bits
Scan type : Progressive
Compression mode : Lossy
Bits/(Pixel*Frame) : 0.184
Stream size : 1.08 GiB (90%)
Writing library : XviD 64
Audio
ID : 1
Format : MPEG Audio
Format version : Version 1
Format profile : Layer 3
Mode : Joint stereo
Mode extension : MS Stereo
Codec ID : 55
Codec ID/Hint : MP3
Duration : 1h 26mn
Bit rate mode : Constant
Bit rate : 192 Kbps
Channel(s) : 2 channels
Sampling rate : 48.0 KHz
Compression mode : Lossy
Delay relative to video : 200ms
Stream size : 118 MiB (10%)
Alignment : Split accross interleaves
Interleave, duration : 40 ms (1.00 video frame)
Interleave, preload duratio : 500 ms
Writing library : LAME3.98.4
2-е действие
Общее
Полное имя : Don.Kihot_Sankt.Peterburgskij.molodyozhnyj.teatr.na.Fontanke.(3.dejstviya.iz.3).2011.XviD.SATRip.fenixclub\Don.Kihot_Sankt.Peterburgskij.molodyozhnyj.teatr.na.Fontanke.2011_2-e.dejstvie.avi
Format : AVI
Format/Info : Audio Video Interleave
File size : 772 MiB
Duration : 54mn 1s
Overall bit rate : 1 999 Kbps
Video
ID : 0
Format : MPEG-4 Visual
Format profile : Advanced Simple@L5
Format settings, BVOP : 2
Format settings, QPel : No
Format settings, GMC : No warppoints
Format settings, Matrix : Default (H.263)
Codec ID : XVID
Codec ID/Hint : XviD
Duration : 54mn 1s
Bit rate : 1 797 Kbps
Width : 720 pixels
Height : 544 pixels
Display aspect ratio : 4:3
Frame rate : 25.000 fps
Color space : YUV
Chroma subsampling : 4:2:0
Bit depth : 8 bits
Scan type : Progressive
Compression mode : Lossy
Bits/(Pixel*Frame) : 0.184
Stream size : 694 MiB (90%)
Writing library : XviD 64
Audio
ID : 1
Format : MPEG Audio
Format version : Version 1
Format profile : Layer 3
Mode : Joint stereo
Mode extension : MS Stereo
Codec ID : 55
Codec ID/Hint : MP3
Duration : 54mn 1s
Bit rate mode : Constant
Bit rate : 192 Kbps
Channel(s) : 2 channels
Sampling rate : 48.0 KHz
Compression mode : Lossy
Stream size : 74.2 MiB (10%)
Alignment : Split accross interleaves
Interleave, duration : 40 ms (1.00 video frame)
Interleave, preload duratio : 500 ms.
3-е действие
Общее
Полное имя : Don.Kihot_Sankt.Peterburgskij.molodyozhnyj.teatr.na.Fontanke.(3.dejstviya.iz.3).2011.XviD.SATRip.fenixclub\Don.Kihot_Sankt.Peterburgskij.molodyozhnyj.teatr.na.Fontanke.2011_3-e.dejstvie.avi
Format : AVI
Format/Info : Audio Video Interleave
File size : 857 MiB
Duration : 59mn 53s
Overall bit rate : 2 001 Kbps
Video
ID : 0
Format : MPEG-4 Visual
Format profile : Advanced Simple@L5
Format settings, BVOP : 2
Format settings, QPel : No
Format settings, GMC : No warppoints
Format settings, Matrix : Default (H.263)
Codec ID : XVID
Codec ID/Hint : XviD
Duration : 59mn 53s
Bit rate : 1 799 Kbps
Width : 720 pixels
Height : 544 pixels
Display aspect ratio : 4:3
Frame rate : 25.000 fps
Color space : YUV
Chroma subsampling : 4:2:0
Bit depth : 8 bits
Scan type : Progressive
Compression mode : Lossy
Bits/(Pixel*Frame) : 0.184
Stream size : 771 MiB (90%)
Writing library : XviD 64
Audio
ID : 1
Format : MPEG Audio
Format version : Version 1
Format profile : Layer 3
Mode : Joint stereo
Codec ID : 55
Codec ID/Hint : MP3
Duration : 59mn 53s
Bit rate mode : Constant
Bit rate : 192 Kbps
Channel(s) : 2 channels
Sampling rate : 48.0 KHz
Compression mode : Lossy
Stream size : 82.2 MiB (10%)
Alignment : Split accross interleaves
Interleave, duration : 40 ms (1.00 video frame)
Interleave, preload duratio : 500 ms.

Скриншоты


Альтернативный хост





Показать сообщения:    

Текущее время: 10-Дек 04:06

Часовой пояс: UTC + 3


Вы не можете начинать темы
Вы не можете отвечать на сообщения
Вы не можете редактировать свои сообщения
Вы не можете удалять свои сообщения
Вы не можете голосовать в опросах
Вы не можете прикреплять файлы к сообщениям
Вы не можете скачивать файлы