Четырежды ноль (Геннадий Шапошников) [2002 г., мелодрама, SATRip] Государственный театр Наций


 

[Цитировать]

Четырежды ноль Название театра: Государственный театр Наций.
Год выпуска: 2002.
Жанр: мелодрама.
Продолжительность: 01:52:38.
Режиссеры: Геннадий Шапошников, Александр Смирнов.
Действующие лица и исполнители:
Мария - народная артистка России Лия Ахеждакова,
Антон - народный артист России Альберт Филозов,
Давид - Алексей Ингелевич,
Шпрехшталмейстер, старый санитар - Владимир Ерёмин
Поприщин - Александр Берда,
Его превосходительство - заслуженный артист России
Сергей Пожарский
,
Ее превосходительство - Юлиана Ромашина,
Начальник отделения - заслуженный деятель искусств России Игорь Ларин,
Чиновник - Игорь Евтушенко,
Казначей - Ростислав Бершауэр,
Мавра - Александр Карамнов.
О спектакле:
Опыт сценической деконструкции текста.
В спектакле использованы фрагменты произведений Нмколая Васильевича Гоголя: "Записки сумасшедшего", "Миргород", "Невский проспект", "Игроки", "Ревизор", "Мертвые души", "Выбранные места из переписки с друзьями".
Режиссер Шапошников:
"У каждого автора есть своя тайна, к которой можно подобрать множество ключей, но каждый режиссер подбирает свой единственный. Что касается Гоголя, то он сам - тайна, вложенная еще в одну тайну, как матрешка. Зритель, который будет наблюдать, как пытается сложить в своем воспаленном сознании разрозненные фрагменты окружающей жизни Поприщин, попадет в плен фантастической игры смыслами, значениями и загадочными иллюзиями."

Дополнительная информация:
Страна: Россия .
Выпущено: © Студия фондовых и архивных программ ГТРК "Культура".
Автор: Николай Гоголь.
Режиссер-постановщик спектакля: Геннадий Шапошников.
Художник-постановщик: Виктор Герасименко.
Музыкальное оформление: Сергей Платонов.
Режиссёр телеверсии: Александр Смирнов.
Оператор-постановщик: Владимир Иванов, Владимир Кузаков.

Релиз

Качество видео:...SATRip
Формат:.................AVI
Видео:..720x544 (1.32:1), 25 fps, XviD build 73 ~1717 kbps avg, 0.17 bit/pixel
Аудио:..48 kHz, MPEG Layer 3, 2 ch, ~128.00 kbps avg

Отчет Media Info

Общее
Полное имя : Chetyrezhdy.nol'_Teatr.Natsij.2002.XviD.SATRip.fenixclub.avi
Format : AVI
Format/Info : Audio Video Interleave
File size : 1.46 GiB
Duration : 1h 52mn
Overall bit rate : 1 855 Kbps
Video
ID : 0
Format : MPEG-4 Visual
Format profile : Advanced Simple@L5
Format settings, BVOP : 2
Format settings, QPel : No
Format settings, GMC : No warppoints
Format settings, Matrix : Default (H.263)
Codec ID : XVID
Codec ID/Hint : XviD
Duration : 1h 52mn
Bit rate : 1 718 Kbps
Width : 720 pixels
Height : 544 pixels
Display aspect ratio : 4:3
Frame rate : 25.000 fps
Color space : YUV
Chroma subsampling : 4:2:0
Bit depth : 8 bits
Scan type : Progressive
Compression mode : Lossy
Bits/(Pixel*Frame) : 0.175
Stream size : 1.35 GiB (93%)
Writing library : XviD 73
Audio
ID : 1
Format : MPEG Audio
Format version : Version 1
Format profile : Layer 3
Mode : Joint stereo
Mode extension : MS Stereo
Codec ID : 55
Codec ID/Hint : MP3
Duration : 1h 52mn
Bit rate mode : Constant
Bit rate : 128 Kbps
Channel(s) : 2 channels
Sampling rate : 48.0 KHz
Compression mode : Lossy
Stream size : 103 MiB (7%)
Alignment : Split accross interleaves
Interleave, duration : 40 ms (1.00 video frame)
Interleave, preload duratio : 500 ms.

Скриншоты


Альтернативный хост





Показать сообщения:    

Текущее время: 07-Дек 11:40

Часовой пояс: UTC + 3


Вы не можете начинать темы
Вы не можете отвечать на сообщения
Вы не можете редактировать свои сообщения
Вы не можете удалять свои сообщения
Вы не можете голосовать в опросах
Вы не можете прикреплять файлы к сообщениям
Вы не можете скачивать файлы