Побег (Владимир Геллер) [1988, мелодрама, телеспектакль, TVRip]


 

[Цитировать]

Побег (2 части) Год выпуска: 1988.
Жанр: мелодрама, телеспектакль.
Продолжительность: 01:12:45 + 00:51:59 (02:04:44).
Режиссер: Владимир Геллер.
Действующие лица и исполнители:
Мартин Ферн - Александр Романцов,
Лиза - Галина Гудова,
Доктор Эбессен - Виктор Михайлов,
Лилли - Вера Высочина,
Томас - Олег Леваков,
Эллинор - Елена Кондулайнен,
Гудрун - Елена Ларионова,
Рональд - Иван Латышев,
Старик - Михаил Девяткин,
Фру Хансен - Татьяна Тарасова,
Лина Ферн - Катя Добрякова,
Магда - Людмила Жукова,
Камма - Галина Никулина,
Отец - Георгий Тейх,
Мать Рональда - Валентина Егоренкова,
Старый "приятель" - Анатолий Семенов,
Хозяйка цветочного магазина - Лариса Сорока,
Продавщица - Татьяна Яковлева,
Владелец табачной лавки - Евгений Соляков.
О спектакле:
Телеспектакль по мотивам романа датского писателя Лейфа Пандуро "Датчанин Ферн".
Некто впезапно очнулся в незнакомом ему мире. Он разглядывает все, что его окружает. Он исследует содержимое карманов: бумажник из черной кожи, фотографии женщин, визитные карточки, на которых имя и фамилия "Мартин Ферн". Кто же он, Мартин Ферн? Некто совершает свое путешествие по местам, куда его забросил случай. Он пытается овладеть миром окружающих его вещей и явлений и разобраться: кто же он есть на самом деле?!

Дополнительная информация:
Страна: СССР .
Выпущено: Ленинградское телевидение.
Автор: Лейф Пандуро.
Автор сценария: Владимир Геллер.
Художник: Александр Евграфов.
Композитор: Сергей Курехин.
Оператор-постановщик: Вячеслав Булаенко.
Релиз

Качество видео:...TVRip
Формат:.................AVI
Видео:..640x480 (1.33:1), 25 fps, XviD MPEG-4 ~1531 kbps avg, 0.20 bit/pixel
Аудио:..48 kHz, MPEG Layer 3, 2 ch, ~128.00 kbps avg

Отчет Media Info

1-я часть
General
Complete name : Pobeg.(2.chasti.iz.2).1988.XviD.TVRip.fenixclub\Pobeg.1988_1-ya.chast'.avi
Format : AVI
Format/Info : Audio Video Interleave
File size : 868 MiB
Duration : 1h 12mn
Overall bit rate : 1 668 Kbps
Video
ID : 0
Format : MPEG-4 Visual
Format profile : Advanced Simple@L5
Format settings, BVOP : 2
Format settings, QPel : No
Format settings, GMC : No warppoints
Format settings, Matrix : Default (H.263)
Codec ID : XVID
Codec ID/Hint : XviD
Duration : 1h 12mn
Bit rate : 1 530 Kbps
Width : 640 pixels
Height : 480 pixels
Display aspect ratio : 4:3
Frame rate : 25.000 fps
Original frame rate : 24.000 fps
Color space : YUV
Chroma subsampling : 4:2:0
Bit depth : 8 bits
Scan type : Progressive
Compression mode : Lossy
Bits/(Pixel*Frame) : 0.199
Stream size : 796 MiB (92%)
Writing library : XviD 73
Audio
ID : 1
Format : MPEG Audio
Format version : Version 1
Format profile : Layer 3
Mode : Joint stereo
Mode extension : MS Stereo
Codec ID : 55
Codec ID/Hint : MP3
Duration : 1h 12mn
Bit rate mode : Constant
Bit rate : 128 Kbps
Channel(s) : 2 channels
Sampling rate : 48.0 KHz
Compression mode : Lossy
Stream size : 66.6 MiB (8%)
Alignment : Aligned on interleaves
Interleave, duration : 40 ms (1.00 video frame)
Interleave, preload duratio : 504 ms.
2-я часть
General
Complete name : Pobeg.(2.chasti.iz.2).1988.XviD.TVRip.fenixclub\Pobeg.1988_2-ya.chast'.avi
Format : AVI
Format/Info : Audio Video Interleave
File size : 621 MiB
Duration : 51mn 59s
Overall bit rate : 1 669 Kbps
Video
ID : 0
Format : MPEG-4 Visual
Format profile : Advanced Simple@L5
Format settings, BVOP : 2
Format settings, QPel : No
Format settings, GMC : No warppoints
Format settings, Matrix : Default (H.263)
Codec ID : XVID
Codec ID/Hint : XviD
Duration : 51mn 59s
Bit rate : 1 532 Kbps
Width : 640 pixels
Height : 480 pixels
Display aspect ratio : 4:3
Frame rate : 25.000 fps
Original frame rate : 24.000 fps
Color space : YUV
Chroma subsampling : 4:2:0
Bit depth : 8 bits
Scan type : Progressive
Compression mode : Lossy
Bits/(Pixel*Frame) : 0.199
Stream size : 570 MiB (92%)
Writing library : XviD 73
Audio
ID : 1
Format : MPEG Audio
Format version : Version 1
Format profile : Layer 3
Mode : Joint stereo
Mode extension : MS Stereo
Codec ID : 55
Codec ID/Hint : MP3
Duration : 51mn 59s
Bit rate mode : Constant
Bit rate : 128 Kbps
Channel(s) : 2 channels
Sampling rate : 48.0 KHz
Compression mode : Lossy
Stream size : 47.6 MiB (8%)
Alignment : Aligned on interleaves
Interleave, duration : 40 ms (1.00 video frame)
Interleave, preload duratio : 504 ms.

Скриншоты


Альтернативный хост





Показать сообщения:    

Текущее время: 10-Дек 17:48

Часовой пояс: UTC + 3


Вы не можете начинать темы
Вы не можете отвечать на сообщения
Вы не можете редактировать свои сообщения
Вы не можете удалять свои сообщения
Вы не можете голосовать в опросах
Вы не можете прикреплять файлы к сообщениям
Вы не можете скачивать файлы