Несерьезный человек (Иван Рассомахин) [1967, мелодрама, телеспектакль, TVRip]


 

[Цитировать]

Несерьезный человек Год выпуска: 1967.
Жанр: мелодрама, телеспектакль.
Продолжительность: 01:15:37.
Режиссер: Иван Рассомахин.
Действующие лица и исполнители:
Алексеев - Валерий Караваев,
Таня - Елизавета Акуличева,
Саша - Александр Семенов,
Лукерья Тихоновна - Ольга Порудолинская,
Василий, ее сын - Николай Муравьев,
Солдат - Александр Белов,
Леонид Сергеевич - Дмитрий Бессонов,
Екатерина Львовна - Калерия Землеглядова,
Кузьма - Николай Трофимов,
Павлов - Юрий Родионов,
Дежурный - Иван Федив,
Оператор - Евгений Барков,
Лейтенант милиции - Иван Краско,
Женщина без билета - Анна Лисянская,
Дежурная по станции - Кира Петрова.
О спектакле:
Новый год. Ленинград. Железнодорожный вокзал.
Поезда уходят, поезда прибывают.
Главный герой Алексеев приехал в отпуск, но остановиться негде и в гостинице нет мест.
Кто-то опоздал на поезд, кто-то потерял кошелек и билет, кого-то не встретили и некуда идти.
Вот так и собрались вместе совершенно разные люди; компания, которая вынуждена встречать Новый год на вокзале.

Дополнительная информация:
Страна: СССР .
Выпущено: Ленинградское телевидение.
Автор сценария: Иван Рассомахин.
Художник-постановщик: Николай Субботин.
Музыкальное оформление: Марианна Курилович.
Ведущий оператор: Михаил Филиппов.
Релиз

Качество видео:...TVRip
Формат:.................AVI
Видео:..640x480 (1.33:1), 25 fps, XviD MPEG-4 ~1241 kbps avg, 0.16 bit/pixel
Аудио:..48 kHz, MPEG Layer 3, 2 ch, ~128.00 kbps avg

Отчет Media Info

General
Complete name : Neser'eznyj.chelovek.1967.XviD.TVRip.fenixclub.avi
Format : AVI
Format/Info : Audio Video Interleave
File size : 746 MiB
Duration : 1h 15mn
Overall bit rate : 1 379 Kbps
Video
ID : 0
Format : MPEG-4 Visual
Format profile : Advanced Simple@L5
Format settings, BVOP : 2
Format settings, QPel : No
Format settings, GMC : No warppoints
Format settings, Matrix : Default (H.263)
Codec ID : XVID
Codec ID/Hint : XviD
Duration : 1h 15mn
Bit rate : 1 241 Kbps
Width : 640 pixels
Height : 480 pixels
Display aspect ratio : 4:3
Frame rate : 25.000 fps
Original frame rate : 24.000 fps
Color space : YUV
Chroma subsampling : 4:2:0
Bit depth : 8 bits
Scan type : Progressive
Compression mode : Lossy
Bits/(Pixel*Frame) : 0.162
Stream size : 671 MiB (90%)
Writing library : XviD 73
Audio
ID : 1
Format : MPEG Audio
Format version : Version 1
Format profile : Layer 3
Mode : Joint stereo
Mode extension : MS Stereo
Codec ID : 55
Codec ID/Hint : MP3
Duration : 1h 15mn
Bit rate mode : Constant
Bit rate : 128 Kbps
Channel(s) : 2 channels
Sampling rate : 48.0 KHz
Compression mode : Lossy
Stream size : 69.2 MiB (9%)
Alignment : Aligned on interleaves
Interleave, duration : 40 ms (1.00 video frame)
Interleave, preload duratio : 504 ms.

Скриншоты


Альтернативный хост





Показать сообщения:    

Текущее время: 09-Дек 08:47

Часовой пояс: UTC + 3


Вы не можете начинать темы
Вы не можете отвечать на сообщения
Вы не можете редактировать свои сообщения
Вы не можете удалять свои сообщения
Вы не можете голосовать в опросах
Вы не можете прикреплять файлы к сообщениям
Вы не можете скачивать файлы