С любимыми не расставайтесь (Нина Попова) [2012 г., Эстония, мелодрама, WEB-DLRip] Театр "Юность", Таллинн


 

[Цитировать]

С любимыми не расставайтесь Название театра: Центр русской культуры. Театр "Юность", Таллинн.
Страна: Эстония .
Год выпуска: 2012.
Жанр: мелодрама.
Продолжительность: 01:34:44.
Язык: Русский.
Режиссер-постановщик: заслуженный деятель культуры ЭР Нина Попова.
Действующие лица и исполнители:
Катя - Елена Шендрик,
Митя - Эдуард Тее,
Судья - Дмитрий Сцимборский,
Женщина - Людмила Баландина,
Ирина - Алина Битюцких,
Фотограф - Игорь Тее,
Керилашвили - Дан Ершов,
Лариса - Анастасия Гулякина,
Мать - Ирина Кадышевич,
Валера - Максим Песиголовец,
Он - Александр Громов,
Она - Оксана Николаева,
Никулины - Лариса Осипова, Леонид Червинский,
Мироновы - Татьяна Егорова, Дмитрий Сцимборский,
Шумиловы - Марьям Исмагилова, Дмитрий Трошков,
Беляевы - Татьяна Комышева, Юрий Макаров.
О спектакле:
Известная пьеса Александра Володина "С любимыми не расставайтесь" - это крик души о том, что любовь не кончается после оформления бумаг о разводе: О том, что испытание ревностью, разлукой и страданиями может сделать чувства двух людей очевидными.
Дополнительная информация:
Автор: Александр Володин.
Музыкальное оформление: Марина Табуева.
Хореограф: Елена Бубон.
Свет: А. Ганин.
Звук: М. Табуева.
Съемка: О. Колтун.
Премьера спектакля состоялась 23 сентября 2012 года.

Релиз
Рип sharky.

Качество видео:...WEB-DLRip
Формат:.................AVI
Видео:..704x400 (1.76:1), 25 fps, DivX Codec 4.x ~1705 kbps avg, 0.24 bit/pixel
Аудио:..44.100 kHz, MPEG Layer 3, 2 ch, ~128.00 kbps avg

Отчет MI

Общее
Полное имя : S.lyubimymi.ne.rasstavajtes'_Teatr.Yunost'.Tallinn.2012.DivX.WEB-DLRip.fenixclub.avi
Format : AVI
Format/Info : Audio Video Interleave
File size : 1.09 GiB
Duration : 1h 31mn
Overall bit rate : 1 709 Kbps
Video
ID : 0
Format : MPEG-4 Visual
Format settings, BVOP : 1
Format settings, QPel : No
Format settings, GMC : No warppoints
Format settings, Matrix : Default (H.263)
Codec ID : DX50
Codec ID/Hint : DivX 5
Duration : 1h 31mn
Bit rate : 1 571 Kbps
Width : 704 pixels
Height : 400 pixels
Display aspect ratio : 16:9
Frame rate : 25.000 fps
Color space : YUV
Chroma subsampling : 4:2:0
Bit depth : 8 bits
Scan type : Progressive
Compression mode : Lossy
Bits/(Pixel*Frame) : 0.223
Stream size : 1.00 GiB (92%)
Title : Video
Writing library : DivX 3013
Audio
ID : 1
Format : MPEG Audio
Format version : Version 1
Format profile : Layer 3
Codec ID : 55
Codec ID/Hint : MP3
Duration : 1h 31mn
Bit rate mode : Constant
Bit rate : 128 Kbps
Channel(s) : 2 channels
Sampling rate : 44.1 KHz
Compression mode : Lossy
Stream size : 83.5 MiB (7%)
Alignment : Split accross interleaves
Interleave, duration : 40 ms (1.00 video frame)
Interleave, preload duratio : 500 ms
Title : Audio

Скриншоты


Альтернативный хост





Показать сообщения:    

Текущее время: 08-Дек 19:08

Часовой пояс: UTC + 3


Вы не можете начинать темы
Вы не можете отвечать на сообщения
Вы не можете редактировать свои сообщения
Вы не можете удалять свои сообщения
Вы не можете голосовать в опросах
Вы не можете прикреплять файлы к сообщениям
Вы не можете скачивать файлы