Мастер и Маргарита (Вячеслав Виттих) [2013 г., Фантасмагория, WEB-DLRip] Калининградский областной драматический театр


 

[Цитировать]

Мастер и Маргарита (2 действия) Название театра: Калининградский областной драматический театр.
Год выпуска: 2013.
Жанр: Фантасмагория в 2-х действиях.
Продолжительность: 01:34:44 + 01:14:06 (02:48:50).
Режиссер-постановщик: Вячеслав Виттих.
Действующие лица и исполнители:
Воланд - Сергей Чернов,
Коровьев - Павел Ботвиновский,
Азазелло - Максим Махинов,
Бегемот, Крысобой - Василий Швечков (мл.),
Гелла - Анастасия Башкина,
Мастер - Олег Яковенко,
Маргарита - Надежда Ильина,
Пилат - заслуженный артист России Анатолий Лукин,
Иешуа - Павел Сибиряков,
Бездомный - Антон Захаров,
Берлиоз, Афраний - Геннадий Марьев,
Римский, Гестас - Геннадий Филиппович,
Каифа - заслуженный артист Таджикистана Юрий Харламбов,
Иуда, Дисмас - Михаил Шевяков,
Левий Матвей, Бенгальский - Сергей Борисов,
Лиходеев - заслуженный артист республики Марий Эл Александр Егоров,
Варенуха, Доктор - заслуженный артист России Василий Швечков (ст.),
Рюхин, убийца, Секретарь - Артем Лернер,
Продавщица, Женщина - заслуженная артистка России Надежда Гайдар,
Аннушка - Надежда Шецко,
Почтальон, Фрида - Любовь Орлова,
Низа, Наташа - Юлия Стерлигова,
Гости на балу, литераторы, зрители варьете - артисты театра.
О спектакле:
Многие знают этот роман наизусть. Фантастическое сочетание мистики и фельетона, любовного сюжета и авантюрной фабулы в сочетании с библейскими мотивами завораживает и читателя, и театрального зрителя. Сам Сатана - Воланд прибыл со свитой в довоенную Москву, чтобы проверить, насколько изменились люди за две тысячи лет. На сцене происходят невероятные вещи. Искушения дьявола не знают преград. Но любовь и верность спасает души людей. Тьма отступает. Рукописи не горят.
Дополнительная информация:
Страна: Россия .
Автор: Михаил Булгаков.
Иснсценировка, постановка и музыкальное оформление спектакля: Вячеслав Виттих.
Художник-сценограф: заслуженный деятель искусств Киргизской республики Юлдаш Нурматов.
Художник по костюмам: Зухра Мукамбетова.
Пластика: Артем Мальков.
Художник по гриму: Вероника Никогосян.
Художник по свету: Людмила Воронина.
Премьера спектакля состоялась 6 апреля 2013 года.

О спектакле.
Релиз
Рип sharky.

Качество видео:...WEB-DLRip
Формат:.................AVI

Видео

1-е действие 704x400 (1.76:1), 25 fps, DivX Codec 4.x ~1712 kbps avg, 0.24 bit/pixel
2-е действие 704x400 (1.76:1), 25 fps, DivX Codec 4.x ~1705 kbps avg, 0.24 bit/pixel
Аудио:..44.100 kHz, MPEG Layer 3, 2 ch, ~128.00 kbps avg

Отчет MI

1-е действие
Общее
Полное имя : Master.i.Margarita.(2.dejstviya.iz.2).2013.DivX.WEB-DLRip.fenixclub\Master.i.Margarita.(1-e.dejstvie.iz.2).2013.avi
Format : AVI
Format/Info : Audio Video Interleave
File size : 1.22 GiB
Duration : 1h 34mn
Overall bit rate : 1 851 Kbps
Video
ID : 0
Format : MPEG-4 Visual
Format settings, BVOP : 1
Format settings, QPel : No
Format settings, GMC : No warppoints
Format settings, Matrix : Default (H.263)
Codec ID : DX50
Codec ID/Hint : DivX 5
Duration : 1h 34mn
Bit rate : 1 713 Kbps
Width : 704 pixels
Height : 400 pixels
Display aspect ratio : 16:9
Frame rate : 25.000 fps
Color space : YUV
Chroma subsampling : 4:2:0
Bit depth : 8 bits
Scan type : Progressive
Compression mode : Lossy
Bits/(Pixel*Frame) : 0.243
Stream size : 1.13 GiB (93%)
Writing library : DivX 3013
Audio
ID : 1
Format : MPEG Audio
Format version : Version 1
Format profile : Layer 3
Mode : Joint stereo
Mode extension : MS Stereo
Codec ID : 55
Codec ID/Hint : MP3
Duration : 1h 34mn
Bit rate mode : Constant
Bit rate : 128 Kbps
Channel(s) : 2 channels
Sampling rate : 44.1 KHz
Compression mode : Lossy
Stream size : 86.7 MiB (7%)
Alignment : Split accross interleaves
Interleave, duration : 40 ms (1.00 video frame)
Interleave, preload duratio : 500 ms.
2-е действие
Общее
Полное имя : Master.i.Margarita.(2.dejstviya.iz.2).2013.DivX.WEB-DLRip.fenixclub\Master.i.Margarita.(2-e.dejstvie.iz.2).2013.avi
Format : AVI
Format/Info : Audio Video Interleave
File size : 977 MiB
Duration : 1h 14mn
Overall bit rate : 1 844 Kbps
Video
ID : 0
Format : MPEG-4 Visual
Format settings, BVOP : 1
Format settings, QPel : No
Format settings, GMC : No warppoints
Format settings, Matrix : Default (H.263)
Muxing mode : Packed bitstream
Codec ID : DX50
Codec ID/Hint : DivX 5
Duration : 1h 14mn
Bit rate : 1 706 Kbps
Width : 704 pixels
Height : 400 pixels
Display aspect ratio : 16:9
Frame rate : 25.000 fps
Color space : YUV
Chroma subsampling : 4:2:0
Bit depth : 8 bits
Scan type : Progressive
Compression mode : Lossy
Bits/(Pixel*Frame) : 0.242
Stream size : 904 MiB (93%)
Writing library : DivX 3013
Audio
ID : 1
Format : MPEG Audio
Format version : Version 1
Format profile : Layer 3
Mode : Joint stereo
Mode extension : MS Stereo
Codec ID : 55
Codec ID/Hint : MP3
Duration : 1h 14mn
Bit rate mode : Constant
Bit rate : 128 Kbps
Channel(s) : 2 channels
Sampling rate : 44.1 KHz
Compression mode : Lossy
Stream size : 67.8 MiB (7%)
Alignment : Split accross interleaves
Interleave, duration : 40 ms (1.00 video frame)
Interleave, preload duratio : 500 ms.

Скриншоты


Альтернативный хост





Показать сообщения:    

Текущее время: 11-Дек 01:22

Часовой пояс: UTC + 3


Вы не можете начинать темы
Вы не можете отвечать на сообщения
Вы не можете редактировать свои сообщения
Вы не можете удалять свои сообщения
Вы не можете голосовать в опросах
Вы не можете прикреплять файлы к сообщениям
Вы не можете скачивать файлы