Теплый хлеб (Юрий Зандберг) [1967, сказка, фильм-спектакль, TVRip]


 

[Цитировать]

Теплый хлеб Год выпуска: 1967.
Жанр: сказка, фильм-спектакль.
Продолжительность: 00:16:29.
Режиссер: Юрий Зандберг.
В ролях:
Леонид Макарьев, Антонина Павлычева, Георгий Тейх, Сережа Штарк.
О спектакле:
По мотивам одноименной сказки Константина Паустовского.
Однажды через деревню проходили кавалеристы и оставили вороного коня, раненого в ногу. Мельник Панкрат вылечил коня, и тот стал ему помогать. Но мельнику было тяжело прокормить коня, поэтому конь иногда ходил по деревенским домам, где его угощали кто ботвой, кто хлебом, а кто и сладкой морковкой.
В деревне жил мальчик Филька, по прозвищу "Ну тебя", потому что это было его любимое выражение. В один день конь пришел к дому Фильки, надеясь, что мальчик даст ему что-нибудь поесть. Но Филька вышел из калитки и бросил хлеб в снег, выкрикивая ругательства. Это очень обидело коня, он встал на дыбы и в этот же момент началась сильная метель. Так началась в Бережках эта удивительная история...

Дополнительная информация:
Страна: СССР .
Автор: Константин Паустовский.
Автор сценария: Э. Соколовская.
Композитор: Владимир Цытович.
Художник: А. Слепков.
Оператор: Роман Черняк
Релиз

Качество видео:...TVRip
Формат:.................AVI
Видео:..640x480 (1.33:1), 25 fps, XviD build 73 ~1641 kbps avg, 0.21 bit/pixel
Аудио:..48 kHz, MPEG Layer 3, 2 ch, ~128.00 kbps avg

Отчет Media Info

General
Complete name : Teplyi.hleb.1967.XviD.TVRip.fenixclub.avi
Format : AVI
Format/Info : Audio Video Interleave
File size : 210 MiB
Duration : 16mn 28s
Overall bit rate : 1 779 Kbps
Video
ID : 0
Format : MPEG-4 Visual
Format profile : Advanced Simple@L5
Format settings, BVOP : 2
Format settings, QPel : No
Format settings, GMC : No warppoints
Format settings, Matrix : Default (H.263)
Codec ID : XVID
Codec ID/Hint : XviD
Duration : 16mn 28s
Bit rate : 1 642 Kbps
Width : 640 pixels
Height : 480 pixels
Display aspect ratio : 4:3
Frame rate : 25.000 fps
Original frame rate : 24.000 fps
Color space : YUV
Chroma subsampling : 4:2:0
Bit depth : 8 bits
Scan type : Progressive
Compression mode : Lossy
Bits/(Pixel*Frame) : 0.214
Stream size : 193 MiB (92%)
Writing library : XviD 73
Audio
ID : 1
Format : MPEG Audio
Format version : Version 1
Format profile : Layer 3
Mode : Joint stereo
Codec ID : 55
Codec ID/Hint : MP3
Duration : 16mn 28s
Bit rate mode : Constant
Bit rate : 128 Kbps
Channel(s) : 2 channels
Sampling rate : 48.0 KHz
Compression mode : Lossy
Stream size : 15.1 MiB (7%)
Alignment : Aligned on interleaves
Interleave, duration : 40 ms (1.00 video frame)
Interleave, preload duratio : 504 ms.

Скриншоты


Альтернативный хост





Показать сообщения:    

Текущее время: 04-Дек 13:09

Часовой пояс: UTC + 3


Вы не можете начинать темы
Вы не можете отвечать на сообщения
Вы не можете редактировать свои сообщения
Вы не можете удалять свои сообщения
Вы не можете голосовать в опросах
Вы не можете прикреплять файлы к сообщениям
Вы не можете скачивать файлы