Вопреки уравнениям (Иван Рассомахин) [1968, фантастика, социальная мелодрама, телеспектакль, WEB-DLRip]


 

[Цитировать]

Вопреки уравнениям (2 части) Год выпуска: 1968.
Жанр: фантастика, социальная мелодрама, телеспектакль.
Продолжительность: 00:48:49 + 00:46:18 (01:35:07).
Режиссер: Иван Рассомахин.
Действующие лица и исполнители:
Инженер - Михаил Волков,
Официантка - Зинаида Афанасенко,
Учитель истории - Дмитрий Бессонов,
Водопроводчик - заслуженный артист РСФСР Борис Рыжухин,
Художник - Анатолий Пустохин,
Женщина - Нина Василькова,
Кельнер - народный артист РСФСР Михаил Екатерининский,
Вальтр - Виталий Иллич,
Джинси - Сергей Дрейден
1-й служащий - Борис Лёскин,
2-й служащий - Николай Боярский,
Дама - заслуженная артистка РСФСР Елизавета Уварова,
Воспитательница - Евгения Царева,
Студент - Евгений Чудаков,
Девушка - Татьяна Егорова.
В эпизодах - артисты ленинградских театров.
О спектакле:
По мотивам пьесы И. Сметановой.
"...Сегодня, 4 апреля, в 17 часов 30 минут на нашем аэродроме, и, как мы выяснили из сообщений нескольких международных агентств, на столичных аэродромах всех государств, входящих в ООН, приземлились космические корабли с иной планеты. Происхождение кораблей до сих пор научно не установлено. По всей вероятности, это представители цивилизации настолько удалённой от нас, что о существование её при нынешнем состоянии земных оптических приборов никто не догадывался..."
/Из сообщения диктора ТВ/

Дополнительная информация:
Страна: СССР .
Выпущено: Ленинградское телевидение.
Автор: И. Сметанова.
Перевод с чешского Виктории Каменской и Олега Малевича.
Художник-постановщик: Сергей Скинтеев.
Художник по костюмам: Ольга Бекетова.
Музыкальное оформление: Марианна Курилович.
Ведущий оператор: Михаил Филиппов.
Релиз
Рип lesik689.

Качество видео:...WEB-DLRip
Формат:.................AVI
Видео:..640x480 (1.33:1), 25 fps, XviD build 64 ~1797 kbps avg, 0.23 bit/pixel
Аудио:..44.100 kHz, MPEG Layer 3, 2 ch, ~128.00 kbps avg

Отчет Media Info

1-я часть
General
Complete name : Vopreki.uravneniyam.(2.chasti.iz.2).1968.XviD.WEB-DLRip.fenixclub\Vopreki.uravnenijam.1968.chast'_1.avi
Format : AVI
Format/Info : Audio Video Interleave
File size : 676 MiB
Duration : 48mn 48s
Overall bit rate : 1 935 Kbps
Writing application : VirtualDubMod 1.5.10.2 (build 2542/release)
Writing library : VirtualDubMod build 2542/release
Video
ID : 0
Format : MPEG-4 Visual
Format profile : Advanced Simple@L5
Format settings, BVOP : 2
Format settings, QPel : No
Format settings, GMC : No warppoints
Format settings, Matrix : Default (MPEG)
Codec ID : XVID
Codec ID/Hint : XviD
Duration : 48mn 48s
Bit rate : 1 798 Kbps
Width : 640 pixels
Height : 480 pixels
Display aspect ratio : 5:4
Original display aspect rat : 4:3
Frame rate : 25.000 fps
Color space : YUV
Chroma subsampling : 4:2:0
Bit depth : 8 bits
Scan type : Progressive
Compression mode : Lossy
Bits/(Pixel*Frame) : 0.234
Stream size : 628 MiB (93%)
Writing library : XviD 64
Audio
ID : 1
Format : MPEG Audio
Format version : Version 1
Format profile : Layer 3
Mode : Joint stereo
Mode extension : MS Stereo
Codec ID : 55
Codec ID/Hint : MP3
Duration : 48mn 48s
Bit rate mode : Constant
Bit rate : 128 Kbps
Channel(s) : 2 channels
Sampling rate : 44.1 KHz
Compression mode : Lossy
Delay relative to video : 5ms
Stream size : 44.6 MiB (7%)
Alignment : Split accross interleaves
Interleave, duration : 40 ms (1.00 video frame)
Interleave, preload duratio : 500 ms.
2-я часть
General
Complete name : Vopreki.uravneniyam.(2.chasti.iz.2).1968.XviD.WEB-DLRip.fenixclub\Vopreki.uravnenijam.1968.chast'_2.avi
Format : AVI
Format/Info : Audio Video Interleave
File size : 641 MiB
Duration : 46mn 18s
Overall bit rate : 1 935 Kbps
Writing application : VirtualDubMod 1.5.10.2 (build 2542/release)
Writing library : VirtualDubMod build 2542/release
Video
ID : 0
Format : MPEG-4 Visual
Format profile : Advanced Simple@L5
Format settings, BVOP : 2
Format settings, QPel : No
Format settings, GMC : No warppoints
Format settings, Matrix : Default (MPEG)
Codec ID : XVID
Codec ID/Hint : XviD
Duration : 46mn 18s
Bit rate : 1 798 Kbps
Width : 640 pixels
Height : 480 pixels
Display aspect ratio : 5:4
Original display aspect rat : 4:3
Frame rate : 25.000 fps
Color space : YUV
Chroma subsampling : 4:2:0
Bit depth : 8 bits
Scan type : Progressive
Compression mode : Lossy
Bits/(Pixel*Frame) : 0.234
Stream size : 595 MiB (93%)
Writing library : XviD 64
Audio
ID : 1
Format : MPEG Audio
Format version : Version 1
Format profile : Layer 3
Mode : Joint stereo
Mode extension : MS Stereo
Codec ID : 55
Codec ID/Hint : MP3
Duration : 46mn 17s
Bit rate mode : Constant
Bit rate : 128 Kbps
Channel(s) : 2 channels
Sampling rate : 44.1 KHz
Compression mode : Lossy
Delay relative to video : 9ms
Stream size : 42.3 MiB (7%)
Alignment : Split accross interleaves
Interleave, duration : 40 ms (1.00 video frame)
Interleave, preload duratio : 500 ms.

Скриншоты


Альтернативный хост





Показать сообщения:    

Текущее время: 02-Дек 23:12

Часовой пояс: UTC + 3


Вы не можете начинать темы
Вы не можете отвечать на сообщения
Вы не можете редактировать свои сообщения
Вы не можете удалять свои сообщения
Вы не можете голосовать в опросах
Вы не можете прикреплять файлы к сообщениям
Вы не можете скачивать файлы