Верю в тебя (Юрий Маляцкий) [1968, лирическая комедия, телеспектакль, TVRip]


 

[Цитировать]

Верю в тебя Год выпуска: 1968.
Жанр: лирическая комедия, телеспектакль.
Продолжительность: 01:04:18.
Режиссер: Юрий Маляцкий.
Действующие лица и исполнители:
Ирина - Ольга Волкова,
Володя - Лев Лемке,
Сергей - Юрий Хохликов.
О спектакле:
Это не сказка. Это и не быль.
В жизни часто происходят чудеса, которые мы почему-то не замечаем.
А если заметить, то можно рассказать историю, о том, как один человек, сделал другого прекрасным, потому что глубоко поверил в то что он прекрасен.
И наоборот, мы нередко делаем людей хуже, чем они есть на самом деле. Слишком много говоря, о их плохих качествах.

Дополнительная информация:
Страна: СССР .
Выпущено: Ленинградское телевидение.
Автор: Вадим Коростылев.
Композитор: Станислав Пожлаков.
Художник-постановщик: Борис Крутиков.
Ведущий оператор: М. Семенов.
Релиз

Качество видео:...TVRip
Формат:.................AVI
Видео:..640x480 (1.33:1), 25 fps, XviD MPEG-4 ~1383 kbps avg, 0.18 bit/pixel
Аудио:..44.100 kHz, MPEG Layer 3, 2 ch, ~128.00 kbps avg

Отчет Media Info

General
Complete name : Veryu.v.tebya.1968.XviD.TVRip.fenixclub.avi
Format : AVI
Format/Info : Audio Video Interleave
File size : 700 MiB
Duration : 1h 4mn
Overall bit rate : 1 521 Kbps
Writing application : VirtualDubModRus 1.5.10.2 (build 2542/release)
Writing library : VirtualDub build 32842/release
Video
ID : 0
Format : MPEG-4 Visual
Format profile : Advanced Simple@L5
Format settings, BVOP : 2
Format settings, QPel : No
Format settings, GMC : No warppoints
Format settings, Matrix : Default (MPEG)
Codec ID : XVID
Codec ID/Hint : XviD
Duration : 1h 4mn
Bit rate : 1 384 Kbps
Width : 640 pixels
Height : 480 pixels
Display aspect ratio : 4:3
Frame rate : 25.000 fps
Color space : YUV
Chroma subsampling : 4:2:0
Bit depth : 8 bits
Scan type : Progressive
Compression mode : Lossy
Bits/(Pixel*Frame) : 0.180
Stream size : 636 MiB (91%)
Writing library : XviD 73
Audio
ID : 1
Format : MPEG Audio
Format version : Version 1
Format profile : Layer 3
Mode : Joint stereo
Mode extension : MS Stereo
Codec ID : 55
Codec ID/Hint : MP3
Duration : 1h 4mn
Bit rate mode : Constant
Bit rate : 128 Kbps
Channel(s) : 2 channels
Sampling rate : 44.1 KHz
Compression mode : Lossy
Stream size : 58.9 MiB (8%)
Alignment : Split accross interleaves
Interleave, duration : 40 ms (1.00 video frame)
Interleave, preload duratio : 500 ms.

Скриншоты

Альтернативный хост




Показать сообщения:    

Текущее время: 04-Дек 04:54

Часовой пояс: UTC + 3


Вы не можете начинать темы
Вы не можете отвечать на сообщения
Вы не можете редактировать свои сообщения
Вы не можете удалять свои сообщения
Вы не можете голосовать в опросах
Вы не можете прикреплять файлы к сообщениям
Вы не можете скачивать файлы