Последние дни (Александр Белинский) [1968, драма, телеспектакль, WEB-DLRip]


 

[Цитировать]

Последние дни Год выпуска: 1968.
Жанр: драма, телеспектакль.
Продолжительность: 01:15:44.
Режиссер: Александр Белинский.
Действующие лица и исполнители:
Пушкина Наталья Николаевна, жена поэта - Ирина Лаврентьева,
Гончарова Александра Николаевна, сестра Натальи Николаевны, живущая в доме поэта - Антонина Шуранова,
Воронцова Александра Кирилловна, графиня, всемерно поддерживавшая и защищавшая Пушкина - Алла Чернова,
Николай I - народный артист РСФСР Владислав Стржельчик,
Бенкендорф - заслуженный артист РСФСР Борис Рыжухин,
Дубельт, начальник штаба Корпуса жандармов и управляющий III Отделением - Анатолий Пустохин,
Дантес, кавалергард - Владимир Тыкке,
Салтыков - Валерий Усков,
Смотрительница в станционном домике - Галина Демидова,
Жуковский Василий Андреевич - заслуженный артист РСФСР Рэм Лебедев,
Кукольник Нестор, поэт, прозаик - Олег Басилашвили,
Бенедиктов, поэт, переводчик - Владимир Тодоров,
Битков, часовой мастер - Николай Боярский,
Богомазов, представитель светского общества - заслуженный артист РСФСР Михаил Храбров,
Князь Пётр Долгоруков, связан с III Отделением - заслуженный артист РСФСР Игорь Дмитриев.
В эпизодах:
артисты Ленинградских театров и студенты Ленинградского государственного Института театра, музыки и кинематографии им. Н. К. Черкасова.
О спектакле:
По пьесе Михаила Булгакова "Последние дни. (Пушкин)".
"И, сохраненная судьбой,
Быть может, в Лете не потонет
Строфа, слагаемая мной..."
/"Евгений Онегин"/

О последних днях жизни Александра Сергеевича Пушкина. Пьеса о Пушкине без Пушкина.
Дополнительная информация:
Страна: СССР .
Выпущено: Ленинградское телевидение.
Автор: Михаил Булгаков.
Оператор: Борис Никаноров.
Художник: И. Поляков.

Релиз
Рип lesik689.

Качество видео:...WEB-DLRip
Формат:.................AVI
Видео:..640x480 (1.33:1), 25 fps, XviD build 64 ~1699 kbps avg, 0.22 bit/pixel
Аудио:..44.100 kHz, MPEG Layer 3, 2 ch, ~128.00 kbps avg

Отчет Media Info

General
Complete name : Poslednije.dni.1968.XviD.WEB-DLRip.fenixclub.avi
Format : AVI
Format/Info : Audio Video Interleave
File size : 995 MiB
Duration : 1h 15mn
Overall bit rate : 1 837 Kbps
Writing application : VirtualDubMod 1.5.10.2 (build 2542/release)
Writing library : VirtualDubMod build 2542/release
Video
ID : 0
Format : MPEG-4 Visual
Format profile : Advanced Simple@L5
Format settings, BVOP : 2
Format settings, QPel : No
Format settings, GMC : No warppoints
Format settings, Matrix : Default (MPEG)
Codec ID : XVID
Codec ID/Hint : XviD
Duration : 1h 15mn
Bit rate : 1 700 Kbps
Width : 640 pixels
Height : 480 pixels
Display aspect ratio : 5:4
Original display aspect rat : 4:3
Frame rate : 25.000 fps
Color space : YUV
Chroma subsampling : 4:2:0
Bit depth : 8 bits
Scan type : Progressive
Compression mode : Lossy
Bits/(Pixel*Frame) : 0.221
Stream size : 921 MiB (93%)
Writing library : XviD 64
Audio
ID : 1
Format : MPEG Audio
Format version : Version 1
Format profile : Layer 3
Mode : Joint stereo
Mode extension : MS Stereo
Codec ID : 55
Codec ID/Hint : MP3
Duration : 1h 15mn
Bit rate mode : Constant
Bit rate : 128 Kbps
Channel(s) : 2 channels
Sampling rate : 44.1 KHz
Compression mode : Lossy
Delay relative to video : 100ms
Stream size : 69.2 MiB (7%)
Alignment : Split accross interleaves
Interleave, duration : 40 ms (1.00 video frame)
Interleave, preload duratio : 500 ms.

Скриншоты


Альтернативный хост





Показать сообщения:    

Текущее время: 05-Дек 01:26

Часовой пояс: UTC + 3


Вы не можете начинать темы
Вы не можете отвечать на сообщения
Вы не можете редактировать свои сообщения
Вы не можете удалять свои сообщения
Вы не можете голосовать в опросах
Вы не можете прикреплять файлы к сообщениям
Вы не можете скачивать файлы