Наташина мечта / Наталчина мрія (Сергей Павлюк) [2015 г., Украина, Драма, моноспектакль, TVRip] Херсонский областной академический музыкально-драматический театр им. Николая Кулиша


 

[Цитировать]

Наташина мечта / Наталчина мрія Название театра: Херсонский областной академический музыкально-драматический театр им. Николая Кулиша.
Год выпуска: 2015.
Страна: Украина .
Жанр: Драма, моноспектакль.
Продолжительность: 00:58:03.
Язык: Русский.
Режиссеры: Сергей Павлюк, Борис Квашнев.
Наташа - Евгения Кирсанова.
Описание:
Пронзительная история 16-летней Натальи, девушки из детдома, которая впервые полюбила. Принимая его жалость за любовь, а его вопрос: "Наташа, а какая у тебя мечта?" - за соответствующее чувство, подросток строит призрачный мир, который разбивается вдребезги. В ее душе размыты нравственные категории добра и зла. Защищая свою мечту - "Хочу любви. Чтобы с фатой и шоколадными конфетами. И чтобы все девки наши за нами шли, и нам завидовали", - Наташа совершает преступление. Героиня объясняет суду, почему покалечила свою соперницу, что привело к этому преступлению (которое сама Наташа преступлением не считает).
По ходу монолога высвечивается биография Наташи, характеры многих людей, которые ее окружают, образ страны, образ эпохи...
В пьесе "Наташина мечта" автор встает на защиту маленького человека.

Дополнительная информация:
Выпущено: Херсонский областной академический музыкально-драматический театр им. Н. Кулиша, ГТРК "Культура" (Украина).
Автор: Ярослава Пулинович.
Режиссер спектакля: Сергей Павлюк.
Генеральный директор и художественный руководитель театра: заслуженный деятель искусств Украины Александр Книга.
Режиссер телеверсии: Борис Квашнев.
Операторы: Вячеслав Рыков, Александр Ящиковский.

Херсонский областной академический музыкально-драматический театр им. Николая Кулиша.
О спектакле.
Внимание!
В спектакле используется ненормативная лексика.

Релиз
Рип sharky.

Качество видео:...TVRip
Формат:.................AVI
Видео:..704x528 (1.33:1), 25 fps, XviD build 47 ~1598 kbps avg, 0.17 bit/pixel
Аудио:..48 kHz, MPEG Layer 3, 2 ch, ~128.00 kbps avg

Отчет Media Info

General
Complete name : Natashina.mechta_Hersonskij.OAMDT.im.Kulisha.2015.XviD.TVRip.fenixclub.avi
Format : AVI
Format/Info : Audio Video Interleave
File size : 721 MiB
Duration : 58mn 3s
Overall bit rate : 1 737 Kbps
Writing application : VirtualDubMod 1.5.10.2 (build 2542/release)
Writing library : VirtualDubMod build 2542/release
Video
ID : 0
Format : MPEG-4 Visual
Format profile : Advanced Simple@L5
Format settings, BVOP : 1
Format settings, QPel : No
Format settings, GMC : No warppoints
Format settings, Matrix : Default (H.263)
Codec ID : XVID
Codec ID/Hint : XviD
Duration : 58mn 3s
Bit rate : 1 599 Kbps
Width : 704 pixels
Height : 528 pixels
Display aspect ratio : 4:3
Frame rate : 25.000 fps
Color space : YUV
Chroma subsampling : 4:2:0
Bit depth : 8 bits
Scan type : Progressive
Compression mode : Lossy
Bits/(Pixel*Frame) : 0.172
Stream size : 664 MiB (92%)
Writing library : XviD 1.2.0.dev47 (UTC 2006-11-01)
Audio
ID : 1
Format : MPEG Audio
Format version : Version 1
Format profile : Layer 3
Mode : Joint stereo
Mode extension : MS Stereo
Codec ID : 55
Codec ID/Hint : MP3
Duration : 58mn 3s
Bit rate mode : Constant
Bit rate : 128 Kbps
Channel(s) : 2 channels
Sampling rate : 48.0 KHz
Compression mode : Lossy
Stream size : 53.1 MiB (7%)
Alignment : Aligned on interleaves
Interleave, duration : 40 ms (1.00 video frame)
Interleave, preload duratio : 504 ms.

Скриншоты

Альтернативный хост




Показать сообщения:    

Текущее время: 09-Дек 03:05

Часовой пояс: UTC + 3


Вы не можете начинать темы
Вы не можете отвечать на сообщения
Вы не можете редактировать свои сообщения
Вы не можете удалять свои сообщения
Вы не можете голосовать в опросах
Вы не можете прикреплять файлы к сообщениям
Вы не можете скачивать файлы