Он приехал в день поминовения (Владимир Геллер) [1986, детектив, телеспектакль, WEB-DLRip]


 

[Цитировать]

Он приехал в день поминовения (2 серии) Год выпуска: 1986.
Жанр: детектив, телеспектакль.
Продолжительность: 02:01:45 + 01:38:02 (03:39:47).
Режиссер: Владимир Геллер.
Действующие лица и исполнители:
Жиль Мовуазен - Александр Пономарёв,
Колетта - Ирина Алфёрова,
Жерардина Элуа - Мария Крутикова,
Плантель - Александр Эстрин,
Бабен - Аркадий Шалолашвили,
Алиса - Анжелика Неволина,
Пол Ренке - Ефим Каменецкий,
Мадам Ренке - Татьяна Щуко,
Морис Соваже - Олег Пальмов,
Боб - Валерий Захарьев,
Жажа - Марина Мальцева,
Армандина - Любовь Бархатова,
Лепар - Александр Демьяненко,
Эрвино - В. Кузин,
Пену Рато - А. Савостьянов,
Сулемдаль - С. Заморев,
Анрике - Г. Никулина,
Отец Жиля - А. Розанов,
Гастон - Б. Гершт,
Кладовщик - Г. Рубин,
Следователь - В. Козлов,
Капитан Юар - В. Караваев,
Марта - Е. Немзер.
В эпизодах:
артисты Ленинградских театров и студенты Ленинградского государственного Института театра, музыки и кинематографии им. Н. К. Черкасова.
О спектакле:
По одноимённому роману Жоржа Сименона.
Девятнадцатилетний Жиль Мовуазен после гибели родителей, артистов мюзик-холла, возвращается из Норвегии в Ла-Рошель, на родину родителей. Здесь он неожиданно узнаёт, что стал единственным наследником огромного состояния родного дяди - Октава Мовуазена. Но в завещании дяди также написано, что, кроме состояния, он оставляет в наследство запертый сейф с таинственными документами, шифр от которого должен разгадать наследник. Тем временем в городе складывается зловещая обстановка...

Дополнительная информация:
Страна: СССР .
Выпущено: Ленинградское телевидение.
Премьера: 2 мая 1987 года (ТВ).
Автор: Жорж Сименон.
Перевод: Юрий Корнеев.
Автор сценария: Владимир Геллер.
Ведущий оператор: Вячеслав Булаенко.
Художник: Александр Евграфов.
Композитор: Владислав Успенский.
Релиз
Рип lesik689.

Качество видео:...WEB-DLRip
Формат:.................AVI
Видео:..624x464 (1.34:1), 25 fps, XviD build 64 ~1419 kbps avg, 0.20 bit/pixel
Аудио:..44.100 kHz, MPEG Layer 3, 2 ch, ~128.00 kbps avg

Отчет Media Info

1-я серия
General
Complete name : On.priehal.v.den'.pominoveniya.(2.serii.iz.2).1986.XviD.WEB-DLRip.fenixclub\On.priehal.v.den'.pominoveniya.(1-ya.seriya.iz.2).1986.avi
Format : AVI
Format/Info : Audio Video Interleave
File size : 1.32 GiB
Duration : 2h 1mn
Overall bit rate : 1 557 Kbps
Video
ID : 0
Format : MPEG-4 Visual
Format profile : Advanced Simple@L5
Format settings, BVOP : 1
Format settings, QPel : No
Format settings, GMC : No warppoints
Format settings, Matrix : Default (MPEG)
Codec ID : XVID
Codec ID/Hint : XviD
Duration : 2h 1mn
Bit rate : 1 419 Kbps
Width : 624 pixels
Height : 464 pixels
Display aspect ratio : 4:3
Frame rate : 25.000 fps
Color space : YUV
Chroma subsampling : 4:2:0
Bit depth : 8 bits
Scan type : Progressive
Compression mode : Lossy
Bits/(Pixel*Frame) : 0.196
Stream size : 1.21 GiB (91%)
Writing library : XviD 64
Audio
ID : 1
Format : MPEG Audio
Format version : Version 1
Format profile : Layer 3
Mode : Joint stereo
Mode extension : MS Stereo
Codec ID : 55
Codec ID/Hint : MP3
Duration : 2h 1mn
Bit rate mode : Constant
Bit rate : 128 Kbps
Channel(s) : 2 channels
Sampling rate : 44.1 KHz
Compression mode : Lossy
Delay relative to video : 4ms
Stream size : 111 MiB (8%)
Alignment : Split accross interleaves
Interleave, duration : 40 ms (1.00 video frame)
Interleave, preload duratio : 500 ms.
2-я серия
General
Complete name : On.priehal.v.den'.pominoveniya.(2.serii.iz.2).1986.XviD.WEB-DLRip.fenixclub\On.priehal.v.den'.pominoveniya.(2-ya.seriya.iz.2).1986.avi
Format : AVI
Format/Info : Audio Video Interleave
File size : 1.07 GiB
Duration : 1h 38mn
Overall bit rate : 1 556 Kbps
Video
ID : 0
Format : MPEG-4 Visual
Format profile : Advanced Simple@L5
Format settings, BVOP : 1
Format settings, QPel : No
Format settings, GMC : No warppoints
Format settings, Matrix : Default (MPEG)
Codec ID : XVID
Codec ID/Hint : XviD
Duration : 1h 38mn
Bit rate : 1 419 Kbps
Width : 624 pixels
Height : 464 pixels
Display aspect ratio : 4:3
Frame rate : 25.000 fps
Color space : YUV
Chroma subsampling : 4:2:0
Bit depth : 8 bits
Scan type : Progressive
Compression mode : Lossy
Bits/(Pixel*Frame) : 0.196
Stream size : 995 MiB (91%)
Writing library : XviD 64
Audio
ID : 1
Format : MPEG Audio
Format version : Version 1
Format profile : Layer 3
Mode : Joint stereo
Mode extension : MS Stereo
Codec ID : 55
Codec ID/Hint : MP3
Duration : 1h 38mn
Bit rate mode : Constant
Bit rate : 128 Kbps
Channel(s) : 2 channels
Sampling rate : 44.1 KHz
Compression mode : Lossy
Stream size : 89.5 MiB (8%)
Alignment : Split accross interleaves
Interleave, duration : 40 ms (1.00 video frame)
Interleave, preload duratio : 501 ms.

Скриншоты


Альтернативный хост





Показать сообщения:    

Текущее время: 08-Дек 07:10

Часовой пояс: UTC + 3


Вы не можете начинать темы
Вы не можете отвечать на сообщения
Вы не можете редактировать свои сообщения
Вы не можете удалять свои сообщения
Вы не можете голосовать в опросах
Вы не можете прикреплять файлы к сообщениям
Вы не можете скачивать файлы