Аглая (Иван Рассомахин) [1968, драма, телеспектакль, WEB-DLRip]


 

[Цитировать]

Аглая Год выпуска: 1968.
Жанр: драма, телеспектакль.
Продолжительность: 01:14:36.
Режиссер: Иван Рассомахин.
Действующие лица и исполнители:
Аглая - Эмма Попова,
Алевтина - Зинаида Шарко,
Родион - Олег Окулевич,
Аверьянов - Михаил Ладыгин,
Фон Цанке - Георгий Тейх,
Венцлов - Владимир Костин.
В эпизодах:
В. Шабалина, К. Петрова-Крейлис, А. Кожевников, Г. Келлер, А. Шестаков, Р. Кульд, И. Щепетнов, С. Николаев, В. Солодников, Л. Тубелевич, Р. Катанский, М. Островский, Ю. Изотов, П. Суворов, В. Скородумов.
О спектакле:
Cтраницы из романа Юрия Германа "Дорогой мой человек".
Действие второй части трилогии Юрия Германа - "Дорогой мой человек" - происходит в годы Великой Отечественной войны. Активная участница партизанского подполья Аглая Устименко попадает в руки гестапо. По легенде для фашистов она – работница районной школы Валентина Федорова, но допрашивающий Аглаю штурмбанфюрер Венцлов не спешит ей верить, тем более, что в картотеке разыскиваемых областных коммунистов фамилия Устименко занимает особое место.

Дополнительная информация:
Страна: СССР .
Выпущено: Ленинградское телевидение.
Автор: Юрий Герман.
Автор сценария: Татьяна Марченко.
Музыкальное оформление: Валентина Кузнецова.
Художник: Александр Славин.
Ведущий оператор: Михаил Филиппов.
Релиз
Рип lesik689.

Качество видео:...WEB-DLRip
Формат:.................AVI
Видео:..640x480 (1.33:1), 25 fps, XviD build 64 ~1799 kbps avg, 0.23 bit/pixel
Аудио:..44.100 kHz, MPEG Layer 3, 2 ch, ~128.00 kbps avg

Отчет Media Info

General
Complete name : Aglaya.1986.XviD.WEB-DLRip.fenixclub.avi
Format : AVI
Format/Info : Audio Video Interleave
File size : 1.01 GiB
Duration : 1h 14mn
Overall bit rate : 1 938 Kbps
Writing application : VirtualDubMod 1.5.10.2 (build 2542/release)
Writing library : VirtualDubMod build 2542/release
Video
ID : 0
Format : MPEG-4 Visual
Format profile : Advanced Simple@L5
Format settings, BVOP : 2
Format settings, QPel : No
Format settings, GMC : No warppoints
Format settings, Matrix : Default (MPEG)
Codec ID : XVID
Codec ID/Hint : XviD
Duration : 1h 14mn
Bit rate : 1 800 Kbps
Width : 640 pixels
Height : 480 pixels
Display aspect ratio : 5:4
Original display aspect rat : 4:3
Frame rate : 25.000 fps
Color space : YUV
Chroma subsampling : 4:2:0
Bit depth : 8 bits
Scan type : Progressive
Compression mode : Lossy
Bits/(Pixel*Frame) : 0.234
Stream size : 961 MiB (93%)
Writing library : XviD 64
Audio
ID : 1
Format : MPEG Audio
Format version : Version 1
Format profile : Layer 3
Mode : Joint stereo
Mode extension : MS Stereo
Codec ID : 55
Codec ID/Hint : MP3
Duration : 1h 14mn
Bit rate mode : Constant
Bit rate : 128 Kbps
Channel(s) : 2 channels
Sampling rate : 44.1 KHz
Compression mode : Lossy
Stream size : 68.3 MiB (7%)
Alignment : Split accross interleaves
Interleave, duration : 40 ms (1.00 video frame)
Interleave, preload duratio : 500 ms.

Скриншоты


Альтернативный хост





Показать сообщения:    

Текущее время: 05-Дек 07:31

Часовой пояс: UTC + 3


Вы не можете начинать темы
Вы не можете отвечать на сообщения
Вы не можете редактировать свои сообщения
Вы не можете удалять свои сообщения
Вы не можете голосовать в опросах
Вы не можете прикреплять файлы к сообщениям
Вы не можете скачивать файлы