Вечер Эдгара Аллана По / An Evening of Edgar Allan Poe (Кеннет Джонсон / Kenneth Johnson) [1970, США, драма, триллер, театр, DVD5 (Custom)] VO (den904) + Sub Rus + Original Eng


 

[Цитировать]

Вечер Эдгара Аллана По / An Evening of Edgar Allan Poe
Страна: США
Жанр: драма, триллер, театр
Год выпуска: 1970
Продолжительность: 00:53:43
Перевод: Любительский одноголосый (den904)
Cубтитры: русские
Оригинальная аудиодорожка: английский
Режиссер: Кеннет Джонсон / Kenneth Johnson
В ролях: Винсент Прайс
Описание: Раньше на телевидении была программа «Театр одного актера», где известные актеры читали классические произведения под соответствующее музыкальное сопровождение. Помню, как в детстве после «Венера Илльская» в исполнении Юрия Яковлева боялся заснуть в темноте. «Вечер Эдгара Аллана По» такой же моноспектакль, где не скованный идиотскими сценариями Винсент Прайс остается один на один с текстами Эдгара По. Зрелище, которое вы не должны пропустить.
Прайс читает четыре рассказа Эдгара Аллана. Все начинается с параноидальной истории «Сердце-обличитель», затем вам дают передышку на юмореске «Сфинкс», погружают в итальянские страсти «Бочонка с амонтильядо» и завершают вечер клаустрофобическим кошмаром «Колодец и маятник». У нас есть возможность, воспользовавшись субтитрами насладиться всей мощью таланта Прайса в полной мере. Чудесный выбор для вечернего просмотра.
Доп. информация: Большое спасибо den904
Сэмпл: http://sendfile.su/1155054
Тип релиза: DVD5 (Custom)
Контейнер: DVD-Video
Видео: NTSC 4:3 (720x480) VBR
Аудио: Russian (Dolby AC3, 192 Кбит/сек, 2 ch)
2Аудио: English (Dolby AC3, 192 Кбит/сек, 2 ch)
Формат субтитров: softsub (SRT)

DVDInfo

Size: 2.65 Gb ( 2 779 066 KBytes ) - DVD-5
Enabled regions: 1, 2, 3, 4, 5, 6, 7, 8
VTS_01 :
Play Length: 00:53:47+00:00:01
Video: NTSC 4:3 (720x480) VBR
Audio:
Russian (Dolby AC3, 2 ch)
English (Dolby AC3, 2 ch)
Subtitles:
Russian
English
English
English
VTS_02 :
Play Length: 00:00:40+00:00:13
Video: NTSC 4:3 (720x480) VBR
Audio:
English (Dolby AC3, 6 ch)
Menu Video:
NTSC 4:3 (720x480) VBR
Menu Subtitles:
Not specified
Menu English Language Unit :
Root Menu
Subpicture Menu
Audio Menu
Chapter (PTT) Menu

MediaInfo

Общее
Полное имя : J:\An Evening Of Edgar Allan Poe_1970\VIDEO_TS\VTS_01_1.VOB
Формат : MPEG-PS
Размер файла : 1024 Мбайт
Продолжительность : 19 м.
Режим общего битрейта : Переменный
Общий поток : 7385 Кбит/сек
Видео
Идентификатор : 224 (0xE0)
Формат : MPEG Video
Версия формата : Version 2
Профиль формата : Main@Main
Параметр BVOP формата : Да
Параметр матрицы формата : Выборочная
Продолжительность : 19 м.
Вид битрейта : Переменный
Битрейт : 6854 Кбит/сек
Ширина : 720 пикселей
Высота : 480 пикселей
Соотношение сторон : 4:3
Частота кадров : 29,970 кадров/сек
Стандарт вещания : NTSC
Цветовое пространство : YUV
Субдискретизация насыщенности : 4:2:0
Битовая глубина : 8 бит
Метод сжатия : С потерями
Бит/(Пиксели*Кадры) : 0.662
Размер потока : 950 Мбайт (93%)
Основные цвета : BT.601 NTSC
Характеристики трансфера : BT.601
Коэффициенты матрицы : BT.601
Аудио #1
Идентификатор : 189 (0xBD)-128 (0x80)
Формат : AC-3
Формат/Информация : Audio Coding 3
Расширение режима : CM (complete main)
Параметр Endianness формата : Big
Режим смешивания : DVD-Video
Продолжительность : 19 м.
Вид битрейта : Постоянный
Битрейт : 192 Кбит/сек
Каналы : 2 канала
Расположение каналов : Front: L R
Частота : 48,0 КГц
Битовая глубина : 16 бит
Метод сжатия : С потерями
Размер потока : 26,6 Мбайт (3%)
Аудио #2
Идентификатор : 189 (0xBD)-129 (0x81)
Формат : AC-3
Формат/Информация : Audio Coding 3
Профиль формата : Dolby Digital
Расширение режима : CM (complete main)
Параметр Endianness формата : Big
Режим смешивания : DVD-Video
Продолжительность : 19 м.
Вид битрейта : Постоянный
Битрейт : 192 Кбит/сек
Каналы : 2 канала
Расположение каналов : Front: L R
Частота : 48,0 КГц
Битовая глубина : 16 бит
Метод сжатия : С потерями
Задержка видео : -49 мс.
Размер потока : 26,6 Мбайт (3%)
Текст #1
Идентификатор : 189 (0xBD)-32 (0x20)
Формат : RLE
Формат/Информация : Run-length encoding
Режим смешивания : DVD-Video
Продолжительность : 19 м.
Задержка видео : 267 мс.
Текст #2
Идентификатор : 189 (0xBD)-33 (0x21)
Формат : RLE
Формат/Информация : Run-length encoding
Режим смешивания : DVD-Video
Продолжительность : 19 м.
Задержка видео : 267 мс.
Текст #3
Идентификатор : 189 (0xBD)-34 (0x22)
Формат : RLE
Формат/Информация : Run-length encoding
Режим смешивания : DVD-Video
Продолжительность : 19 м.
Задержка видео : 267 мс.
Текст #4
Идентификатор : 189 (0xBD)-35 (0x23)
Формат : RLE
Формат/Информация : Run-length encoding
Режим смешивания : DVD-Video
Продолжительность : 18 м.
Задержка видео : 28 с.
Текст #5
Идентификатор : 224 (0xE0)-CC3
Формат : EIA-608
Режим смешивания : DVD-Video
Режим смешивания, доп. информация : Muxed in Video #1
Вид битрейта : Постоянный
Размер потока : 0,00 байт (0%)
Меню

Постеры

Скриншоты меню

Скриншоты




Показать сообщения:    

Текущее время: 08-Дек 14:54

Часовой пояс: UTC + 3


Вы не можете начинать темы
Вы не можете отвечать на сообщения
Вы не можете редактировать свои сообщения
Вы не можете удалять свои сообщения
Вы не можете голосовать в опросах
Вы не можете прикреплять файлы к сообщениям
Вы не можете скачивать файлы