Объявлен розыск (Глеб Селянин) [1981, детектив, экранизация, телеспектакль, TVRip]


 

[Цитировать]

Объявлен розыск Год выпуска: 1981.
Жанр: детектив, экранизация, телеспектакль.
Продолжительность: 01:52:26.
Режиссер: Глеб Селянин.
В ролях:
Наталья Данилова, Юрий Демич, Виктор Костецкий, Владимир Особик, Виталий Юшков, Алексей Ян.
О спектакле:
Телеспектакль по повести Николая Леонова "Инюрколлегия разыскивает".
Администратор пансионата "Отдых" неожиданно получает в наследство крупную денежную сумму и становится жертвой ограбления.
Вскоре выясняется, что преступник - один из отдыхающих в пансионате...

Дополнительная информация:
Страна: СССР .
Выпущено: Ленинградское телевидение.
Автор: Николай Леонов.
Автор сценария: Глеб Селянин.
Композитор: Игорь Цветков.
Художник: Ольга Бекетова.
Ведущий оператор: Андрей Гусак.

Еще постер

Релиз

Качество видео:...TVRip
Формат:.................AVI
Видео:..640x480 (1.33:1), 25 fps, XviD MPEG-4 ~1714 kbps avg, 0.22 bit/pixel
Аудио:..48 kHz, MPEG Layer 3, 2 ch, ~128.00 kbps avg

Отчет Media Info

General
Complete name : Ob'yavlen.rozysk.1981.XviD.TVRip.fenixclub.avi
Format : AVI
Format/Info : Audio Video Interleave
File size : 1.45 GiB
Duration : 1h 52mn
Overall bit rate : 1 852 Kbps
Video
ID : 0
Format : MPEG-4 Visual
Format profile : Advanced Simple@L5
Format settings, BVOP : 2
Format settings, QPel : No
Format settings, GMC : No warppoints
Format settings, Matrix : Default (H.263)
Codec ID : XVID
Codec ID/Hint : XviD
Duration : 1h 52mn
Bit rate : 1 714 Kbps
Width : 640 pixels
Height : 480 pixels
Display aspect ratio : 4:3
Frame rate : 25.000 fps
Original frame rate : 24.000 fps
Color space : YUV
Chroma subsampling : 4:2:0
Bit depth : 8 bits
Scan type : Progressive
Compression mode : Lossy
Bits/(Pixel*Frame) : 0.223
Stream size : 1.35 GiB (93%)
Writing library : XviD 73
Audio
ID : 1
Format : MPEG Audio
Format version : Version 1
Format profile : Layer 3
Mode : Joint stereo
Mode extension : MS Stereo
Codec ID : 55
Codec ID/Hint : MP3
Duration : 1h 52mn
Bit rate mode : Constant
Bit rate : 128 Kbps
Channel(s) : 2 channels
Sampling rate : 48.0 KHz
Compression mode : Lossy
Stream size : 103 MiB (7%)
Alignment : Aligned on interleaves
Interleave, duration : 40 ms (1.00 video frame)
Interleave, preload duratio : 504 ms.

Скриншоты


Альтернативный хост





Показать сообщения:    

Текущее время: 06-Дек 22:55

Часовой пояс: UTC + 3


Вы не можете начинать темы
Вы не можете отвечать на сообщения
Вы не можете редактировать свои сообщения
Вы не можете удалять свои сообщения
Вы не можете голосовать в опросах
Вы не можете прикреплять файлы к сообщениям
Вы не можете скачивать файлы