Убийце - Гонкуровская премия (Ирина Сорокина) [1984, детектив, телеспектакль, TVRip]


 

[Цитировать]

Убийце - Гонкуровская премия (2 части) Год выпуска: 1984.
Жанр: детектив, телеспектакль.
Продолжительность: 01:06:33 + 01:07:35 (02:14:07).
Режиссер: Ирина Сорокина.
Действующие лица и исполнители:
Макс Бари - Кирилл Лавров,
Рози Соваж - Наталия Дмитриева,
Жозе Робен - Юрий Демич,
Жак Д'Аржан - Андрей Толубеев,
Рассек - Игорь Дмитриев,
Гастон Симони - Владимир Рецептер,
Жино Роберти - Ефим Каменецкий,
Катрин - Эра Зиганшина,
Комиссар - Георгий Штиль,
Норбер - Владимир Козлов,
Гюстав Мюэ - Виктор Ростовцев,
Фризу - Валерий Караваев,
Мадам Лорис - Елена Агаронова,
Раминьи - Олег Пальмов,
Полицейский - Евгений Чудаков.
О спектакле:
По одноименному роману Пьера Гамарра.
Никому не известный писатель Поль Дубуа получает за свой роман престижную Гонкуровскую премию. На вручение премии автор не приходит, а затем довольно скоро выясняется: убийство, описанное в романе, произошло на самом деле. Репортер Жозе Робен проводит свое расследование и вычисляет автора и убийцу.

Дополнительная информация:
Страна: СССР .
Выпущено: Ленинградское телевидение.
Автор: Пьер Гамарр.
Перевод: Илья Эренбург.
Художник: Андрей Пилипцов.
Композитор: Владислав Соловьев.
Оператор: Виктор Бочаров.

Еще постеры

Релиз

Качество видео:...TVRip
Формат:.................AVI
Видео:..720x544 (1.32:1), 25 fps, XviD build 73 ~1415 kbps avg, 0.14 bit/pixel
Аудио:..48 kHz, MPEG Layer 3, 2 ch, ~128.00 kbps avg

Отчет Media Info

1-я часть
General
Complete name : Ubiice.Gonkurovskaya.premiya.(2.chasti.iz.2).1984.XviD.TVRip.fenixclub\Ubiice.Gonkurovskaya.premiya.(1-ya.chast'.iz.2).1984.avi
Format : AVI
Format/Info : Audio Video Interleave
File size : 739 MiB
Duration : 1h 6mn
Overall bit rate : 1 552 Kbps
Video
ID : 0
Format : MPEG-4 Visual
Format profile : Advanced Simple@L5
Format settings, BVOP : 2
Format settings, QPel : No
Format settings, GMC : No warppoints
Format settings, Matrix : Default (H.263)
Codec ID : XVID
Codec ID/Hint : XviD
Duration : 1h 6mn
Bit rate : 1 414 Kbps
Width : 720 pixels
Height : 544 pixels
Display aspect ratio : 4:3
Frame rate : 25.000 fps
Color space : YUV
Chroma subsampling : 4:2:0
Bit depth : 8 bits
Scan type : Progressive
Compression mode : Lossy
Bits/(Pixel*Frame) : 0.144
Stream size : 673 MiB (91%)
Writing library : XviD 73
Audio
ID : 1
Format : MPEG Audio
Format version : Version 1
Format profile : Layer 3
Mode : Joint stereo
Mode extension : MS Stereo
Codec ID : 55
Codec ID/Hint : MP3
Duration : 1h 6mn
Bit rate mode : Constant
Bit rate : 128 Kbps
Channel(s) : 2 channels
Sampling rate : 48.0 KHz
Compression mode : Lossy
Stream size : 60.9 MiB (8%)
Alignment : Split accross interleaves
Interleave, duration : 40 ms (1.00 video frame)
Interleave, preload duratio : 500 ms.
2-я часть
General
Complete name : Ubiice.Gonkurovskaya.premiya.(2.chasti.iz.2).1984.XviD.TVRip.fenixclub\Ubiice.Gonkurovskaya.premiya.(2-ya.chast'.iz.2).1984.avi
Format : AVI
Format/Info : Audio Video Interleave
File size : 751 MiB
Duration : 1h 7mn
Overall bit rate : 1 553 Kbps
Video
ID : 0
Format : MPEG-4 Visual
Format profile : Advanced Simple@L5
Format settings, BVOP : 2
Format settings, QPel : No
Format settings, GMC : No warppoints
Format settings, Matrix : Default (H.263)
Codec ID : XVID
Codec ID/Hint : XviD
Duration : 1h 7mn
Bit rate : 1 415 Kbps
Width : 720 pixels
Height : 544 pixels
Display aspect ratio : 4:3
Frame rate : 25.000 fps
Color space : YUV
Chroma subsampling : 4:2:0
Bit depth : 8 bits
Scan type : Progressive
Compression mode : Lossy
Bits/(Pixel*Frame) : 0.145
Stream size : 684 MiB (91%)
Writing library : XviD 73
Audio
ID : 1
Format : MPEG Audio
Format version : Version 1
Format profile : Layer 3
Mode : Joint stereo
Mode extension : MS Stereo
Codec ID : 55
Codec ID/Hint : MP3
Duration : 1h 7mn
Bit rate mode : Constant
Bit rate : 128 Kbps
Channel(s) : 2 channels
Sampling rate : 48.0 KHz
Compression mode : Lossy
Stream size : 61.9 MiB (8%)
Alignment : Split accross interleaves
Interleave, duration : 40 ms (1.00 video frame)
Interleave, preload duratio : 500 ms.

Скриншоты


Альтернативный хост





Показать сообщения:    

Текущее время: 11-Дек 16:49

Часовой пояс: UTC + 3


Вы не можете начинать темы
Вы не можете отвечать на сообщения
Вы не можете редактировать свои сообщения
Вы не можете удалять свои сообщения
Вы не можете голосовать в опросах
Вы не можете прикреплять файлы к сообщениям
Вы не можете скачивать файлы