Гибель поэта (Владимир Захаров) [1986, драма, телеспектакль, TVRip]


 

[Цитировать]

Гибель поэта Год выпуска: 1986.
Жанр: драма, телеспектакль.
Продолжительность: 01:19:57.
Режиссер: Владимир Захаров.
Поэт - Михаил Езепов.
В остальных ролях:
Алексей Михайлов, Александр Пономарев, Вера Бабичева, Людмила Иванова, Наталья Гущина, Юрий Комаров, Юрий Блащук, Арис Розенталь, Владимир Бамдас, Юрий Шерстнев.
О спектакле:
О жизни, творчестве и гибели выдающегося испанского поэта Федерико Гарсиа Лорки.
В телеспектакль включены стихотворения и отрывки из пьес Федерико Гарсиа Лорки: "Драма без названия", "Мариана Пинеда", "Кровавая свадьба", а также стихотворения Роберта Рождественского "Гитара Гарсиа Лорки" и Николая Асеева "Песнь о Гарсиа Лорке", документальная запись выступления Рафаэля Альберти - испанского поэта, друга Гарсиа Лорки.

Дополнительная информация:
Страна: СССР .
Выпущено: Главная редакция литературно-драматических программ ЦТ.
Авторы сценария: Георгий Зубков, Андрей Красильников.
Художник-постановщик: Ольга Гончаренко.
Композитор: Владимир Чеджемов.
Операторы: Михаил Игнатов, Н. Руденко.

Релиз

Качество видео:...TVRip
Формат:.................AVI
Видео:..688x512 (1.34:1), 25 fps, XviD MPEG-4 ~1174 kbps avg, 0.13 bit/pixel
Аудио:..48 kHz, MPEG Layer 3, 2 ch, ~128.00 kbps avg

Отчет Media Info

General
Complete name : Gibel'.poeta.1986.XviD.TVRip.fenixclub.avi
Format : AVI
Format/Info : Audio Video Interleave
File size : 750 MiB
Duration : 1h 19mn
Overall bit rate : 1 312 Kbps
Writing application : VirtualDubModRus 1.5.10.2 (build 2542/release)
Writing library : VirtualDub build 32842/release
Video
ID : 0
Format : MPEG-4 Visual
Format profile : Advanced Simple@L5
Format settings, BVOP : 2
Format settings, QPel : No
Format settings, GMC : No warppoints
Format settings, Matrix : Default (MPEG)
Codec ID : XVID
Codec ID/Hint : XviD
Duration : 1h 19mn
Bit rate : 1 174 Kbps
Width : 688 pixels
Height : 512 pixels
Display aspect ratio : 4:3
Frame rate : 25.000 fps
Color space : YUV
Chroma subsampling : 4:2:0
Bit depth : 8 bits
Scan type : Progressive
Compression mode : Lossy
Bits/(Pixel*Frame) : 0.133
Stream size : 671 MiB (90%)
Writing library : XviD 73
Audio
ID : 1
Format : MPEG Audio
Format version : Version 1
Format profile : Layer 3
Mode : Joint stereo
Mode extension : MS Stereo
Codec ID : 55
Codec ID/Hint : MP3
Duration : 1h 19mn
Bit rate mode : Constant
Bit rate : 128 Kbps
Channel(s) : 2 channels
Sampling rate : 48.0 KHz
Compression mode : Lossy
Stream size : 73.2 MiB (10%)
Alignment : Split accross interleaves
Interleave, duration : 40 ms (1.00 video frame)
Interleave, preload duratio : 500 ms.

Скриншоты

Альтернативный хост




Показать сообщения:    

Текущее время: 05-Дек 07:30

Часовой пояс: UTC + 3


Вы не можете начинать темы
Вы не можете отвечать на сообщения
Вы не можете редактировать свои сообщения
Вы не можете удалять свои сообщения
Вы не можете голосовать в опросах
Вы не можете прикреплять файлы к сообщениям
Вы не можете скачивать файлы