Как совершаются браки? (Диана Лукова) [1984, водевиль, телеспектакль, WEB-DLRip]


 

[Цитировать]

Как совершаются браки? Год выпуска: 1984.
Жанр: водевиль, телеспектакль.
Продолжительность: 01:11:24.
Режиссер: Диана Лукова.
В ролях: Наталья Данилова, Леонид Куравлев, Николай Трофимов, Николай Боярский.
О спектакле:
"Не брезгуйте водевилем.
...Водевиль хорошая штука."
/А. Чехов (9.06.1888)/

Музыкальный телеспектакль по водевилям Антона Павловича Чехова в двух частях: "Предложение", "Медведь".
Дополнительная информация:
Страна: СССР .
Выпущено: Ленинградское телевидение.
Автор: Антон Павлович Чехов.
Художник-постановщик: Юрий Пауков.
Автор песен: Виктор Сумароков.
Композитор: Юрий Симакин.
Оператор-постановщик: Вячеслав Булаенко.
Релиз
Рип lesik689.

Качество видео:...WEB-DLRip
Формат:.................AVI
Видео:..640x480 (1.33:1), 25 fps, XviD build 64 ~1797 kbps avg, 0.23 bit/pixel
Аудио:..44.100 kHz, MPEG Layer 3, 2 ch, ~128.00 kbps avg

Отчет Media Info

General
Complete name : Kak.sovershajutsja.braki.1984.XviD.WEB-DLRip.fenixclub.avi
Format : AVI
Format/Info : Audio Video Interleave
File size : 988 MiB
Duration : 1h 11mn
Overall bit rate : 1 936 Kbps
Writing application : VirtualDubMod 1.5.10.2 (build 2542/release)
Writing library : VirtualDubMod build 2542/release
Video
ID : 0
Format : MPEG-4 Visual
Format profile : Advanced Simple@L5
Format settings, BVOP : 2
Format settings, QPel : No
Format settings, GMC : No warppoints
Format settings, Matrix : Default (MPEG)
Codec ID : XVID
Codec ID/Hint : XviD
Duration : 1h 11mn
Bit rate : 1 798 Kbps
Width : 640 pixels
Height : 480 pixels
Display aspect ratio : 5:4
Original display aspect rat : 4:3
Frame rate : 25.000 fps
Color space : YUV
Chroma subsampling : 4:2:0
Bit depth : 8 bits
Scan type : Progressive
Compression mode : Lossy
Bits/(Pixel*Frame) : 0.234
Stream size : 918 MiB (93%)
Writing library : XviD 64
Audio
ID : 1
Format : MPEG Audio
Format version : Version 1
Format profile : Layer 3
Mode : Joint stereo
Mode extension : MS Stereo
Codec ID : 55
Codec ID/Hint : MP3
Duration : 1h 11mn
Bit rate mode : Constant
Bit rate : 128 Kbps
Channel(s) : 2 channels
Sampling rate : 44.1 KHz
Compression mode : Lossy
Stream size : 65.2 MiB (7%)
Alignment : Split accross interleaves
Interleave, duration : 40 ms (1.00 video frame)
Interleave, preload duratio : 501 ms

Скриншоты


Альтернативный хост





Показать сообщения:    

Текущее время: 08-Дек 17:24

Часовой пояс: UTC + 3


Вы не можете начинать темы
Вы не можете отвечать на сообщения
Вы не можете редактировать свои сообщения
Вы не можете удалять свои сообщения
Вы не можете голосовать в опросах
Вы не можете прикреплять файлы к сообщениям
Вы не можете скачивать файлы