Монт-Ориоль (Диана Лукова) [1982, мелодрама, телеспектакль, TVRip]


 

[Цитировать]

Монт-Ориоль (2 серии) Год выпуска: 1982.
Жанр: мелодрама, телеспектакль.
Продолжительность: 01:27:03 + 01:25:24 (02:52:27).
Режиссер: Диана Лукова.
Действующие лица и исполнители:
Вильям Андермат - Владислав Стржельчик,
Христиана де Равенель - Елена Соловей,
Поль де Бретиньи - Родион Нахапетов,
Гонтран де Равенель - Юрий Демич,
Шарлотта Ориоль - Лариса Луппиан,
Луиза Ориоль - Наталья Данилова,
Маркиз де Равенель - Изиль Заблудовский,
Бродяга Кловис - Эрнст Романов,
Мадзелли - Геннадий Богачев,
Латон - Анатолий Шведерский,
Бонфиль - Анатолий Абрамов,
Онора - Михаил Данилов,
Дядюшка Ориоль - Иван Пальму.
О спектакле:
По роману французского писателя Ги де Мопассана.
В основе спектакля лежит история любви между Христианой Андермат и Полем Бретиньи.

Дополнительная информация:
Страна: СССР .
Выпущено: Ленинградское телевидение.
Автор: Ги де Мопассан.
Художник-постановщик: Ольга Воронецкая.
Оператор-постановщик: Вячеслав Булаенко.
Релиз

Качество видео:...TVRip
Формат:.................AVI
Видео:..640x480 (1.33:1), 25 fps, XviD build 73 ~1658, 1660 kbps avg, 0.22 bit/pixel
Аудио:..48 kHz, MPEG Layer 3, 2 ch, ~128.00 kbps avg

Отчет Media Info

1-я серия
General
Complete name : Mont.Oriol.(2.serii.iz.2).1982.XviD.TVRip.fenixclub\Mont.Oriol.(1-ya.seriya).1982.avi
Format : AVI
Format/Info : Audio Video Interleave
File size : 1.09 GiB
Duration : 1h 27mn
Overall bit rate : 1 797 Kbps
Video
ID : 0
Format : MPEG-4 Visual
Format profile : Advanced Simple@L5
Format settings, BVOP : 2
Format settings, QPel : No
Format settings, GMC : No warppoints
Format settings, Matrix : Default (H.263)
Codec ID : XVID
Codec ID/Hint : XviD
Duration : 1h 27mn
Bit rate : 1 659 Kbps
Width : 640 pixels
Height : 480 pixels
Display aspect ratio : 4:3
Frame rate : 25.000 fps
Original frame rate : 24.000 fps
Color space : YUV
Chroma subsampling : 4:2:0
Bit depth : 8 bits
Scan type : Progressive
Compression mode : Lossy
Bits/(Pixel*Frame) : 0.216
Stream size : 1.01 GiB (92%)
Writing library : XviD 73
Audio
ID : 1
Format : MPEG Audio
Format version : Version 1
Format profile : Layer 3
Mode : Joint stereo
Mode extension : MS Stereo
Codec ID : 55
Codec ID/Hint : MP3
Duration : 1h 27mn
Bit rate mode : Constant
Bit rate : 128 Kbps
Channel(s) : 2 channels
Sampling rate : 48.0 KHz
Compression mode : Lossy
Stream size : 79.7 MiB (7%)
Alignment : Aligned on interleaves
Interleave, duration : 40 ms (1.00 video frame)
Interleave, preload duratio : 504 ms
2-я серия
General
Complete name : Mont.Oriol.(2.serii.iz.2).1982.XviD.TVRip.fenixclub\Mont.Oriol.(2-ya.seriya).1982.avi
Format : AVI
Format/Info : Audio Video Interleave
File size : 1.07 GiB
Duration : 1h 25mn
Overall bit rate : 1 799 Kbps
Video
ID : 0
Format : MPEG-4 Visual
Format profile : Advanced Simple@L5
Format settings, BVOP : 2
Format settings, QPel : No
Format settings, GMC : No warppoints
Format settings, Matrix : Default (H.263)
Codec ID : XVID
Codec ID/Hint : XviD
Duration : 1h 25mn
Bit rate : 1 661 Kbps
Width : 640 pixels
Height : 480 pixels
Display aspect ratio : 4:3
Frame rate : 25.000 fps
Original frame rate : 24.000 fps
Color space : YUV
Chroma subsampling : 4:2:0
Bit depth : 8 bits
Scan type : Progressive
Compression mode : Lossy
Bits/(Pixel*Frame) : 0.216
Stream size : 1 015 MiB (92%)
Writing library : XviD 73
Audio
ID : 1
Format : MPEG Audio
Format version : Version 1
Format profile : Layer 3
Mode : Joint stereo
Mode extension : MS Stereo
Codec ID : 55
Codec ID/Hint : MP3
Duration : 1h 25mn
Bit rate mode : Constant
Bit rate : 128 Kbps
Channel(s) : 2 channels
Sampling rate : 48.0 KHz
Compression mode : Lossy
Stream size : 78.2 MiB (7%)
Alignment : Aligned on interleaves
Interleave, duration : 40 ms (1.00 video frame)
Interleave, preload duratio : 504 ms

Скриншоты


Альтернативный хост





Показать сообщения:    

Текущее время: 04-Дек 13:17

Часовой пояс: UTC + 3


Вы не можете начинать темы
Вы не можете отвечать на сообщения
Вы не можете редактировать свои сообщения
Вы не можете удалять свои сообщения
Вы не можете голосовать в опросах
Вы не можете прикреплять файлы к сообщениям
Вы не можете скачивать файлы