Барышня-крестьянка (Диана Лукова) [1969, мелодрама, телеспектакль, WEB-DLRip]


 

[Цитировать]

Барышня-крестьянка Год выпуска: 1969.
Жанр: мелодрама, телеспектакль.
Продолжительность: 00:52:30.
Режиссер: Диана Лукова.
Действующие лица и исполнители:
Берестов - Иван Дмитриев,
Муромский - Николай Карамышев,
Алексей - Николай Иванов,
Настя - Светлана Карпинская,
Мисс Жаксон - А. Прохорова,
Лиза - А. Тараканова.
О спектакле:
По повести Александра Сергеевича Пушкина из серии "Повести Белкина".
Дополнительная информация:
Страна: СССР .
Выпущено: Ленинградское телевидение.
Автор: Александр Сергеевич Пушкин.
Художник-постановщик: Александр Евграфов.
Ведущий оператор: М. Семенов.

Качество видео:...WEB-DLRip
Формат:.................AVI
Видео:..640x480 (1.33:1), 25 fps, XviD MPEG-4 ~1868 kbps avg, 0.24 bit/pixel
Аудио:..44.100 kHz, MPEG Layer 3, 2 ch, ~128.00 kbps avg

Отчет Media Info

General
Complete name : Baryshnya-krest'yanka.1969.XviD.WEB-DLRip.fenixclub.avi
Format : AVI
Format/Info : Audio Video Interleave
File size : 752 MiB
Duration : 52mn 30s
Overall bit rate : 2 001 Kbps
Writing library : TMPGEnc 4.0 XPress Version. 4.7.7.307
Video
ID : 0
Format : MPEG-4 Visual
Format profile : Simple@L3
Format settings, BVOP : No
Format settings, QPel : No
Format settings, GMC : No warppoints
Format settings, Matrix : Default (H.263)
Codec ID : XVID
Codec ID/Hint : XviD
Duration : 52mn 30s
Bit rate : 1 866 Kbps
Width : 640 pixels
Height : 480 pixels
Display aspect ratio : 4:3
Frame rate : 25.000 fps
Color space : YUV
Chroma subsampling : 4:2:0
Bit depth : 8 bits
Scan type : Progressive
Compression mode : Lossy
Bits/(Pixel*Frame) : 0.243
Stream size : 701 MiB (93%)
Writing library : XviD 73
Audio
ID : 1
Format : MPEG Audio
Format version : Version 1
Format profile : Layer 3
Mode : Joint stereo
Mode extension : MS Stereo
Codec ID : 55
Codec ID/Hint : MP3
Duration : 52mn 23s
Bit rate mode : Constant
Bit rate : 128 Kbps
Channel(s) : 2 channels
Sampling rate : 44.1 KHz
Compression mode : Lossy
Stream size : 48.0 MiB (6%)
Alignment : Aligned on interleaves
Interleave, duration : 250 ms (6.25 video frames)
Interleave, preload duratio : 182 ms

Скриншоты

Альтернативный хост




Показать сообщения:    

Текущее время: 09-Дек 16:35

Часовой пояс: UTC + 3


Вы не можете начинать темы
Вы не можете отвечать на сообщения
Вы не можете редактировать свои сообщения
Вы не можете удалять свои сообщения
Вы не можете голосовать в опросах
Вы не можете прикреплять файлы к сообщениям
Вы не можете скачивать файлы