Живи и помни (Екатерина Еланская, Татьяна Маслова) [1987 г., Драма, SATRip] Московский драматический театр "Сфера"


 

[Цитировать]

Живи и помни Название театра: Московский драматический театр "Сфера".
Год выпуска: 1987.
Жанр: Драма.
Продолжительность: 01:33:15.
Режиссеры:
Екатерина Еланская
, Татьяна Маслова.
Действующие лица и исполнители:
Настя - Татьяна Доронина,
Андрей - Александр Голобородько.
О спектакле:
По одноименной повести Валентина Распутина.
В последний год войны в родную деревню возвращается Андрей. Но возвращается не героем, а дезертиром, не доехавшим после ранения из госпиталя в свою воинскую часть. О том, что Андрей вернулся, знает только один человек – жена Настя – единственная, кому Андрей может доверить свою жизнь. Настя вынуждена скрывать мужа даже от родных, лишь изредка навещая его в укрытии...

Дополнительная информация:
Страна: СССР .
Выпущено: © Главная редакция литературно-драматических программ.
Автор: Валентин Распутин.
Режиссер-постановщик спектакля: Юлия Беляева.
Режиссер: Татьяна Маслова.
Художник по костюмам: М. Шмыгановская.
Создатель Московского драматического театра "Сфера":
Екатерина Ильинична Еланская
.
Оператор-постановщик: Александр Шапорин.

Релиз

Качество видео:...SATRip
Формат:.................AVI
Видео:..704x544 (1.29:1), 25 fps, XviD build 73 ~2098 kbps avg, 0.22 bit/pixel
Аудио:..48 kHz, MPEG Layer 3, 2 ch, ~128.00 kbps avg

Отчет MI

General
Complete name : Zhivi.i.pomni_Moskovskij.DT.Sfera.1987.XviD.SATRip.fenixclub.avi
Format : AVI
Format/Info : Audio Video Interleave
File size : 1.46 GiB
Duration : 1h 33mn
Overall bit rate : 2 236 Kbps
Video
ID : 0
Format : MPEG-4 Visual
Format profile : Advanced Simple@L5
Format settings, BVOP : 2
Format settings, QPel : No
Format settings, GMC : No warppoints
Format settings, Matrix : Default (H.263)
Codec ID : XVID
Codec ID/Hint : XviD
Duration : 1h 33mn
Bit rate : 2 099 Kbps
Width : 704 pixels
Height : 544 pixels
Display aspect ratio : 1.294
Frame rate : 25.000 fps
Color space : YUV
Chroma subsampling : 4:2:0
Bit depth : 8 bits
Scan type : Progressive
Compression mode : Lossy
Bits/(Pixel*Frame) : 0.219
Stream size : 1.37 GiB (94%)
Writing library : XviD 73
Audio
ID : 1
Format : MPEG Audio
Format version : Version 1
Format profile : Layer 3
Mode : Joint stereo
Mode extension : MS Stereo
Codec ID : 55
Codec ID/Hint : MP3
Duration : 1h 33mn
Bit rate mode : Constant
Bit rate : 128 Kbps
Channel(s) : 2 channels
Sampling rate : 48.0 KHz
Compression mode : Lossy
Stream size : 85.4 MiB (6%)
Alignment : Split accross interleaves
Interleave, duration : 40 ms (1.00 video frame)
Interleave, preload duratio : 500 ms.

Скриншоты

Альтернативный хост




Показать сообщения:    

Текущее время: 06-Дек 22:54

Часовой пояс: UTC + 3


Вы не можете начинать темы
Вы не можете отвечать на сообщения
Вы не можете редактировать свои сообщения
Вы не можете удалять свои сообщения
Вы не можете голосовать в опросах
Вы не можете прикреплять файлы к сообщениям
Вы не можете скачивать файлы