Невидимка (Карэн Нерсисян) [2002 г., мюзикл, WEB-DLRip] Московский государственный театр «У Никитских ворот»


 

[Цитировать]

Невидимка Название театра: Московский государственный театр «У Никитских ворот».
Год выпуска: 2002.
Жанр: мюзикл.
Продолжительность: 01:45:31.
Режиссер: Карэн Нерсисян.
Действующие лица и исполнители:
Гриффин - Сергей Щеглов,
Мисс Холл - заслуженная артистка России Галина Борисова,
Милли - Ольга Лебедева,
Кемп - Александр Бычков,
Эдай - Александр Лукаш,
Марвел - Анатолий Зарембовский,
Генфри - Сергей Мартыненко,
Касс - Иван Власов,
Викарий - Александр Бычков,
Констебль - Александр Чернявский,
Жительницы города Айпинга - Наталья Драйчик, Ирина Черных.
Описание:
По роману Герберта Уэллса "Человек-невидимка".
"Как бы современно не звучали стихи и музыка, спектакль весь - из Англии начала века. Еще лет десять назад лейтмотивом "Невидимки" стало бы одиночество человека, не похожего на всех, осмелившегося высунуться. Нынешней действительности всё равно, оригинальный ты или нет, сметаются все, кто не умеет сопротивляться крутизне и хамству. Но спектакль получился не трагическим, а легким, вполне в мюзикловом жанре.

Дополнительная информация:
Страна: Россия .
Автор: Герберт Уэллс.
Композитор: Татьяна Смольская.
Аранжировка: Сергей Филатов.
Стихи: Юрий Ряшенцев.
Сценография и костюмы: Андрей Рыжий.
Балетмейстер: Виктор Шкилько.

Релиз
Рип sharky.

Качество видео: WEB-DLRip
Формат: AVI
Видео: 704x528 (1.33:1), 25 fps, XviD build 47 ~1343 kbps avg, 0.14 bit/pixel
Аудио: 44.100 kHz, MPEG Layer 3, 2 ch, ~128.00 kbps avg

Отчет MediaInfo

Общее
Полное имя : Nevidimka_Teatr.U.Nikitskih.vorot.2002.XviD.WEB-DLRip.fenixclub.avi
Format : AVI
Format/Info : Audio Video Interleave
File size : 1.09 GiB
Duration : 1h 45mn
Overall bit rate : 1 481 Kbps
Writing application : VirtualDubMod 1.5.10.2 (build 2540/release)
Writing library : VirtualDubMod build 2540/release
Video
ID : 0
Format : MPEG-4 Visual
Format profile : Advanced Simple@L5
Format settings, BVOP : 1
Format settings, QPel : No
Format settings, GMC : No warppoints
Format settings, Matrix : Default (H.263)
Codec ID : XVID
Codec ID/Hint : XviD
Duration : 1h 45mn
Bit rate : 1 344 Kbps
Width : 704 pixels
Height : 528 pixels
Display aspect ratio : 4:3
Frame rate : 25.000 fps
Color space : YUV
Chroma subsampling : 4:2:0
Bit depth : 8 bits
Scan type : Progressive
Compression mode : Lossy
Bits/(Pixel*Frame) : 0.145
Stream size : 1 014 MiB (91%)
Writing library : XviD 1.2.0.dev47 (UTC 2006-11-01)
Audio
ID : 1
Format : MPEG Audio
Format version : Version 1
Format profile : Layer 3
Codec ID : 55
Codec ID/Hint : MP3
Duration : 1h 45mn
Bit rate mode : Constant
Bit rate : 128 Kbps
Channel(s) : 2 channels
Sampling rate : 44.1 KHz
Compression mode : Lossy
Stream size : 96.6 MiB (9%)
Alignment : Split accross interleaves
Interleave, duration : 40 ms (1.00 video frame)
Interleave, preload duratio : 500 ms
Writing library : LAME3.97
Encoding settings : -m s -V 4 -q 2 -lowpass 17 -b 128

Скриншоты


Альтернативный хост





Показать сообщения:    

Текущее время: 09-Дек 12:44

Часовой пояс: UTC + 3


Вы не можете начинать темы
Вы не можете отвечать на сообщения
Вы не можете редактировать свои сообщения
Вы не можете удалять свои сообщения
Вы не можете голосовать в опросах
Вы не можете прикреплять файлы к сообщениям
Вы не можете скачивать файлы